<?xml version="1.0" standalone="no"?>
<!DOCTYPE svg PUBLIC "-//W3C//DTD SVG 1.1//EN" "http://www.w3.org/Graphics/SVG/1.1/DTD/svg11.dtd" >
<svg xmlns="http://www.w3.org/2000/svg">
<metadata>
This is a custom SVG webfont generated by Font Squirrel.
Copyright   : Fontgrube AH
</metadata>
<defs>
<font id="webfontDV2JwZtE" horiz-adv-x="966" >
<font-face units-per-em="2048" ascent="1638" descent="-410" />
<missing-glyph horiz-adv-x="400" />
<glyph unicode=" "  horiz-adv-x="400" />
<glyph unicode="&#x09;" horiz-adv-x="400" />
<glyph unicode="&#xa0;" horiz-adv-x="400" />
<glyph unicode="!" horiz-adv-x="360" d="M120 387v1092q0 29 40 54q34 22 66 22q22 0 40 -9q0 -66 -19 -190q-21 -130 -24 -189q-2 -160 -12 -479q-4 -76 -24 -169q-29 -131 -67 -132zM168 -12h-10q-88 0 -88 67v239q16 2 27 3q40 0 78 -17q48 -22 48 -57v-153q0 -19 -55 -82z" />
<glyph unicode="&#x22;" horiz-adv-x="566" d="M417 1277q0 -21 -34 -20l-36 165q2 18 3 37q0 31 -12 93t-12 92q0 65 72 125q97 -77 97 -201q0 -17 -23 -109t-30 -103q-25 -40 -25 -79zM93 1243v21v5q0 10 -14.5 41.5t-14.5 49.5q0 7 5 21t5 22q0 9 -5 27t-5 28q0 32 -11 94t-11 92q0 65 73 125q97 -77 97 -201 q0 -28 -13 -67l-22 -68l-13 -113q-11 -64 -71 -77z" />
<glyph unicode="#" horiz-adv-x="1249" d="M1109 886q-50 17 -125 17l-77 -1l-55 -189l207 2q17 0 55 12t73 10v-27q0 -21 -36.5 -106.5t-51.5 -95.5q-54 18 -166 18q-22 0 -67.5 -1t-69.5 -1l-142 -490q-11 -42 -11 -70q0 -7 15.5 -35t15.5 -53h-247q0 64 63 101l158 547h-279l-144 -496q-11 -42 -11 -70 q0 -7 15 -35.5t15 -52.5h-246q0 64 62 101l160 553h-4q-31 0 -90 -9t-88 -9q0 45 21 103l38 101l47 -2l130 1l55 194h-38q-25 1 -39 1q-82 0 -138 -23q-10 -4 -17 -4t-24 4.5t-26 4.5q0 44 18 103l32 102l55 -4l231 1l88 278q53 179 53 276q-15 20 -15 38q0 7 1 33h243 q0 -26 -11 -49q-37 -32 -38 -33q-21 -21 -27 -42l-144 -499l278 2l88 277q54 180 54 279q-15 20 -14 38q0 6 1 33h243q0 -26 -11 -49q-37 -32 -38 -33q-21 -21 -27 -42l-145 -502q26 0 236 24q-74 -219 -89 -231zM479 903l-56 -193l279 3l55 190h-278z" />
<glyph unicode="$" d="M504 1101l67 -48q193 -146 252 -231q88 -125 89 -326q0 -293 -248 -519q-172 -156 -308 -168q-31 -319 -73 -367q-136 120 -136 174q0 16 14 42q37 75 64 187l-102 85q-63 50 -117 50q-61 0 -166 -63q-31 -20 -150 -107q-52 -13 -116 -14q59 131 136 203q83 76 218 108 q31 7 56 7q67 0 139 -71q85 -87 122 -102q26 128 41 322q26 319 26 324q5 47 34 208q25 130 25 210q0 15 -2 29q-162 96 -270 219q-54 63 -54 152q0 121 116 209q106 79 232 78q21 0 61.5 -3t58.5 -3q-1 5 -1 11q0 86 10 114q18 60 84 60q69 0 69 -64q0 -22 -13.5 -62.5 t-13.5 -60.5q63 -1 190 -8q-18 -27 -42 -73l5 -9q-1 -23 -26 -59t-46 -36q-26 0 -57 25q-44 34 -51 38q-11 -25 -63.5 -232t-53.5 -229zM441 1593q-96 0 -149.5 -61t-53.5 -158q0 -72 39 -125q71 -96 132 -102q85 306 84 398q1 48 -52 48zM480 967q-17 -70 -26 -185 q-11 -160 -15 -187q-52 -417 -72 -665q184 33 283 232q81 163 81 373q0 218 -180 382q-23 23 -71 50z" />
<glyph unicode="%" horiz-adv-x="1573" d="M331 939q-180 0 -291 256q-25 56 -24 160q0 136 88 281q98 163 226 163q131 0 226 -145q83 -130 83 -269q0 -214 -114 -342q-93 -104 -194 -104zM1107 1740q-34 -29 -38 -33q-21 -22 -27 -42l-422 -1499q-12 -43 -13 -70q0 -9 15.5 -36.5t15.5 -52.5h-245q0 64 62 101 q212 760 370 760q6 0 17 -2t17 -2q31 0 37 112q0 -1 0 131q0 94 -4 305q-5 198 -4 306q-16 18 -16 38q0 7 2 33h244q0 -27 -11 -49zM1145 -11q-179 0 -290 258q-25 56 -24 158q0 137 87 282q99 163 227 163q131 0 226 -146q83 -129 83 -267q0 -214 -114 -343 q-93 -105 -195 -105zM329 1703l-17 -1q-112 -60 -112 -312q0 -157 11 -221q25 -151 110 -151q90 0 128 155q25 97 25 227q0 312 -145 303zM1144 753l-19 -1q-110 -59 -110 -311q0 -157 11 -220q25 -151 109 -151q90 0 129 153q25 98 24 227q1 313 -144 303z" />
<glyph unicode="&#x26;" horiz-adv-x="1071" d="M833 -145q-341 828 -462 828q-74 0 -135 -134q-53 -117 -53 -203q0 -81 51 -148q55 -72 134 -73q75 0 161 43l123 -147q-101 -60 -254 -60q-367 0 -367 373q0 145 86 266q47 66 196 206q-39 93 -209 244q184 216 368 216q229 0 230 -213q0 -81 -42 -123l-167 -167v-3 q0 -7 14 -30q291 -470 516 -734v-18zM463 1150q-86 0 -86 -109q0 -108 59 -150q99 79 99 166q0 93 -72 93z" />
<glyph unicode="'" horiz-adv-x="321" d="M45 1211v21l51 90q29 55 29 98q0 32 -21.5 92t-21.5 93q0 65 71 125q98 -58 99 -200q0 -94 -15 -134q-61 -162 -192 -185z" />
<glyph unicode="(" horiz-adv-x="554" d="M425 -339q-54 43 -135 188q-182 324 -182 763q0 216 79 511q93 353 223 438h8q12 0 78 -71q-209 -263 -209 -832q0 -326 77 -638q44 -177 146 -259z" />
<glyph unicode=")" horiz-adv-x="554" d="M135 -324l-11 4l-69 67q209 269 209 841q0 253 -38 469q-58 315 -183 406q54 98 94 98q11 0 34 -30q276 -363 276 -900q0 -259 -73 -510q-84 -297 -239 -445z" />
<glyph unicode="*" horiz-adv-x="548" d="M330 1341q0 -39 101 -114l-85 -55q-56 115 -107 115q-53 0 -111 -122l-80 62q99 74 99 114q0 47 -154 51l34 93q88 -45 130 -46q43 0 43 49q0 29 -17 84h107q-16 -52 -16 -81q0 -52 44 -52q43 0 126 46l33 -93q-147 -6 -147 -51z" />
<glyph unicode="+" horiz-adv-x="942" d="M672 601l-103 4l-1 -234q0 -11 14 -29l3 -6q6 -9 6 -16q1 -21 -101 -28q-67 -5 -144 -4l48 144q27 85 24 148l-2 53l-377 23q11 67 26 101q26 60 74 58q42 -1 121 -29t120 -29q43 -2 51 69q2 22 -2 99q5 25 9 74q-1 18 -27 86q120 63 185 65q-11 -92 -20 -186 q-12 -110 -12 -190l300 -13l10 -184q-68 11 -202 24z" />
<glyph unicode="," horiz-adv-x="398" d="M70 -312v22q65 137 65 225q0 40 -21.5 119t-21.5 120q0 93 99 149q97 -85 97 -203q0 -200 -132 -363q-44 -57 -86 -69z" />
<glyph unicode="-" horiz-adv-x="546" d="M410 541q-67 28 -190 28q-34 0 -97 -17.5t-94 -17.5q0 47 23 103l41 99l44 -29q39 0 127 -1h125q23 0 43 29l64 -5q-5 -26 -38 -98q-35 -78 -48 -91z" />
<glyph unicode="." horiz-adv-x="333" d="M141 -15q-96 0 -96 159q0 49 21 101q26 66 67 67q48 0 79 -73q26 -59 26 -114q0 -34 -32 -85q-33 -55 -65 -55z" />
<glyph unicode="/" horiz-adv-x="703" d="M742 1664q-34 -29 -38 -33q-21 -21 -27 -42l-452 -1561q-11 -42 -11 -70q0 -7 14.5 -34.5t15.5 -53.5h-246q0 65 62 101q227 788 395 787q6 0 18.5 -1t18.5 -1q33 0 39 120q0 -2 0 142q0 97 -3 312q-4 202 -4 312q-15 18 -15 38q0 7 1 33h243q0 -27 -11 -49z" />
<glyph unicode="0" horiz-adv-x="915" d="M443 -15q-123 0 -243 144q-81 97 -134 297q-48 179 -48 327q0 334 155 598q125 214 272 214q69 0 151 -72q75 -65 117 -115q157 -185 157 -552q0 -250 -97 -509q-126 -332 -330 -332zM443 1447q-9 0 -29 -1q-66 -38 -122 -150.5t-56 -193.5v-685q0 -81 54 -191 q63 -125 133 -125q243 0 243 751q0 595 -223 595z" />
<glyph unicode="1" horiz-adv-x="373" d="M247 438q0 -233 56 -450h-248v18q0 44 16 119q21 97 23 120q28 217 29 577q0 312 -106 500q26 31 155.5 116.5t167.5 97.5v-21q0 -50 -20 -146q-27 -124 -30 -148q-43 -306 -43 -783z" />
<glyph unicode="2" horiz-adv-x="954" d="M344 174q88 -49 170 -49q129 0 286 134q72 -120 72 -259h-822l435 512q217 269 217 565q0 356 -252 356q-202 0 -202 -215q0 -103 70 -136q38 -18 162 -25q1 -5 3 -13q0 -37 -61.5 -109t-97.5 -72q-96 0 -161 111q-56 96 -56 199q0 156 126 270q123 110 280 110 q198 0 318 -214q52 -94 51 -249q0 -141 -51 -260q-82 -192 -487 -656z" />
<glyph unicode="3" horiz-adv-x="942" d="M456 0q-124 0 -188 38q-222 129 -223 335q0 119 76.5 208t193.5 89q36 0 108 -20q87 -22 87 -44q0 -32 -41 -87t-71 -56q-71 39 -95 39q-145 0 -145 -174q0 -96 117 -191q45 -37 136 -36q145 0 220 141q59 113 59 272q0 128 -59 225q-65 106 -182 137q-36 10 -132 31 q140 79 220 136q102 75 102 221q0 194 -210 194q-182 0 -181 -145q0 -66 146 -103q-23 -40 -63 -85q-52 -56 -81 -56q-63 0 -94 80q-25 60 -25 133q0 131 100 210q92 71 228 71q166 0 257 -89.5t91 -255.5q0 -101 -36 -159l-96 -129q-6 -9 -11 -20q120 -121 166 -198 q67 -114 67 -249q0 -194 -123 -327q-125 -136 -318 -136z" />
<glyph unicode="4" horiz-adv-x="942" d="M755 371q-1 0 -26 -2v-302q0 -48 -90 -71q-99 -27 -152 -27l47 138q34 101 34 129q0 27 -2 79l-4 76h-551l351 996q23 66 31 190q6 114 29 163q38 81 150 130q88 38 145 37h8l-494 -1329q0 -52 59 -52h219q86 0 86 202q0 308 -66 519q189 104 260 105l-39 -170 q-27 -125 -27 -157v-474h167v-196q-22 0 -67 8t-68 8z" />
<glyph unicode="5" d="M432 0q-387 0 -387 380q0 107 38 159q97 131 232 131q49 0 118 -32q77 -34 90 -75q-54 -80 -124 -126q-50 40 -118 40q-136 0 -136 -147q0 -94 78 -163q75 -66 170 -66q162 0 239 154q58 118 58 298q0 402 -338 403q-39 0 -67 -1q-60 -42 -119 -42q-20 0 -48 4 q93 229 108 617h570q-31 -63 -30 -108q0 -44 30 -96q-32 -4 -55 -4q-18 0 -137 42q-43 16 -168 16q-37 0 -53 -12q-34 -28 -54 -120q-16 -71 -16 -129q0 -20 2 -41q266 -23 415 -149q167 -141 167 -398q0 -220 -120 -371q-131 -164 -345 -164z" />
<glyph unicode="6" horiz-adv-x="980" d="M459 0q-142 0 -271.5 144t-129.5 468q0 280 108 485q93 175 319 384q61 56 146 92q21 -7 21 -24q0 -12 -29 -50l-176 -229q-96 -133 -146 -249q-53 -121 -53 -333q0 -227 2 -270q6 -121 52 -223q60 -134 161 -134q136 0 205 202q49 145 49 316q0 215 -65 301.5t-138 86.5 q-60 0 -124 -91q-86 -123 -100 -135q-2 40 -3 70q0 101 73.5 180.5t174.5 79.5q130 0 256 -146q53 -60 88 -179q31 -107 30 -199q0 -247 -118 -379q-149 -168 -332 -168z" />
<glyph unicode="7" horiz-adv-x="890" d="M135 -209q0 191 7 245q6 42 85 236q144 353 296 897q13 50 13 123q0 44 -22 61q-52 2 -103 3q-160 0 -321 -92h-8q-16 0 -28 64q-9 49 -9 79q0 66 27 115h760v-35q-279 -514 -363 -1032q-15 -129 -52 -386q-37 -212 -282 -278z" />
<glyph unicode="8" horiz-adv-x="876" d="M429 -27q-285 0 -398 275q-25 60 -25 175q0 151 73 257q39 58 185 192v8q-156 168 -156 324q0 141 100.5 244t240.5 103t249 -109t109 -251q0 -97 -55 -170q-23 -32 -127 -129v-33q121 -121 166 -195q66 -110 67 -247q0 -189 -118 -315q-122 -129 -311 -129zM452 1434 q-75 0 -120 -45t-45 -121q0 -141 155 -251q54 -38 75 -38q25 0 57 48q53 76 53 200q0 207 -175 207zM351 776l-15 -2q-140 -113 -140 -351q0 -140 54 -234q66 -115 197 -115q90 0 169 98q74 94 74 186q0 103 -79 214q-66 94 -164 164q-58 42 -96 40z" />
<glyph unicode="9" horiz-adv-x="930" d="M256 -103q-21 7 -20 26q0 27 40 64l141 121q76 72 117 145q156 283 156 669q0 196 -38 333q-61 217 -205 217q-123 0 -189 -175q-49 -130 -49 -280q0 -147 46 -282q63 -182 181 -182q61 0 100 59l53 110q28 59 64 58q1 -109 -16 -158q-63 -174 -233 -174q-167 0 -278 188 q-96 162 -95 341q0 194 105 370q121 204 302 204q217 0 342 -237q102 -193 102 -432q0 -306 -179 -574q-167 -250 -447 -411z" />
<glyph unicode=":" horiz-adv-x="321" d="M86 682q-80 0 -80 96q0 205 88 205q44 0 78 -69q27 -58 27 -109q0 -123 -113 -123zM107 0q-90 0 -90 227q0 49 1 80q28 5 49 5q131 0 132 -162q0 -150 -92 -150z" />
<glyph unicode=";" horiz-adv-x="373" d="M164 655q-40 0 -63 59q-18 44 -19 93q0 60 53 159q11 4 21 3q43 0 94 -72v-156q0 -86 -86 -86zM58 -328v19q0 47 31 136.5t31 138.5q-40 106 -40 190q0 141 88 141q29 0 58 -48q25 -44 24 -77v-71q1 -287 -192 -429z" />
<glyph unicode="&#x3c;" d="M244 771l-6 -9q-7 11 -61 58q-47 39 -47 54q0 20 42 44q38 23 33 35q40 -2 150 146q77 106 136 231l49 111q36 79 61 94q91 -131 91 -194q0 -25 -184 -206q-189 -185 -202 -276l251 -225q195 -179 195 -230q0 -66 -82 -84q-67 -10 -135 -18l1 11q0 38 -60 126l-87 119 q-28 50 -91 149q-31 44 -57 53z" />
<glyph unicode="=" horiz-adv-x="484" d="M385 1030q-69 23 -197 23q-37 0 -101 -24.5t-97 -25.5q0 58 30 132l52 128l46 -26h226q42 0 78 43h49v-27q0 -21 -36.5 -116.5t-49.5 -106.5zM375 652q-69 22 -196 22q-38 0 -102 -24.5t-95 -24.5q0 56 29 131l52 127l45 -24h227q42 0 77 43h51v-27q0 -22 -36.5 -117 t-51.5 -106z" />
<glyph unicode="&#x3e;" d="M749 1023l6 9q7 -11 60 -56q48 -40 48 -56q0 -18 -40 -42.5t-36 -35.5q-40 2 -149 -146q-77 -107 -137 -231l-48 -110q-37 -79 -62 -96q-91 131 -90 195q0 25 185.5 208t199.5 273l-252 225q-194 180 -193 232q0 66 82 83l135 17l-2 -10q0 -38 59 -126l89 -120 q28 -50 91 -148q31 -44 56 -54z" />
<glyph unicode="?" horiz-adv-x="683" d="M233 369q-63 39 -62 130q0 169 77 324l143 236q77 128 78 231q0 183 -162 182q-66 0 -132 -55q-16 -13 -101 -105q-43 48 -43 152q0 86 28 109h339q28 0 108 -65q75 -60 103 -122.5t28 -160.5q0 -153 -97 -285l-201 -230q-53 -63 -73 -163q-32 -174 -33 -178zM233 0 q-75 0 -75 125q0 112 70 158q99 -27 100 -139q-1 -144 -95 -144z" />
<glyph unicode="@" horiz-adv-x="1222" d="M772 361q-40 0 -57 26q-4 6 -22 60q-65 -82 -152 -83q-92 0 -142 89q-40 74 -41 173q0 130 83 256q92 142 214 143q87 0 140 -67l64 76l63 -23l-104 -447q-9 -37 -8 -57q0 -32 17 -32q40 0 96 61q113 125 113 300q0 166 -67 263q-76 114 -234 115q-148 0 -281 -93.5 t-179 -233.5q-36 -103 -36 -232q0 -187 123 -322q126 -140 310 -140q164 0 383 197l-11 -114q-196 -177 -401 -177q-244 0 -393 169q-142 161 -142 408q0 250 152 438q162 201 408 201q209 0 331 -142q115 -134 115 -347q0 -113 -33.5 -207t-122.5 -172q-96 -86 -186 -86z M650 924q-74 0 -131 -144q-49 -121 -49 -209q0 -125 75 -126q120 0 180 236l27 85q20 59 20 79q0 17 -52 48t-70 31z" />
<glyph unicode="A" horiz-adv-x="1148" d="M702 774q-129 -1 -259 -189q-120 -171 -130 -309q-4 -53 -4 -118.5t4 -142.5q-28 -15 -114 -15q-96 0 -145 15q97 259 163 607q31 164 96 623q7 48 7 138q0 106 -6 223q-39 1 -40 1q-29 0 -92.5 -58t-150.5 -58v67q-1 67 61 107q54 34 125 35l524 2q0 -23 -8 -70.5 t-8 -70.5q0 -275 79 -555q33 9 79 75q26 36 26 110q0 20 -7 58.5t-7 58.5q0 60 78 60q44 0 70 -55q20 -44 20 -95q0 -94 -60 -174q-21 -28 -113 -114q-60 -58 -60 -97q0 -97 193 -710q34 -109 117 -256q87 -155 237 -154q22 0 38 2q117 65 242 65q0 -9 1 -32.5t1 -35.5 q0 -60 -86 -91q-63 -22 -135 -22q-126 0 -255 81q-194 120 -406 272q43 131 43 178q0 5 -3 16zM526 1470h-7l-80 -399q-28 -119 -62 -357q275 196 275 248q-1 115 -126 508z" />
<glyph unicode="B" horiz-adv-x="1173" d="M150 -326v79q334 49 537 265q211 225 211 558q0 459 -374 458q-131 0 -131 -60v-260q0 -136 23 -318l43 -314v-6l-4 -6q-4 -4 -48 -9q-71 -9 -121 -19q-50 -21 -156 -42q121 218 122 393v542q-60 -50 -73 -65q-32 -38 -32 -90q0 -39 22 -114.5t24 -114.5h-3 q-170 0 -170 163q0 98 34 163q17 33 96 135l106 99v60q0 7 1 14q0 216 -73 503q71 6 236 53q148 43 234 43q136 0 238 -81q109 -86 109 -218q0 -101 -49 -162q-28 -34 -111.5 -89t-121.5 -104q220 -128 286 -217q86 -117 86 -346q0 -301 -222 -541q-227 -244 -403 -308 q-117 -44 -316 -44zM605 1682q-148 0 -173 -103q-33 -136 -33 -440q135 50 253 140q155 117 154 224q0 179 -201 179z" />
<glyph unicode="C" horiz-adv-x="1289" d="M1446 -387h-112q-313 0 -609 170q-291 167 -469 439q-187 287 -186 601q0 369 220 669q187 254 430 275q29 2 80 2q291 1 423 -15q-72 -80 -106 -111q-64 -59 -128 -83q-110 118 -223 117q-108 0 -184 -63q-173 -147 -269 -371q-52 -120 -52 -339q0 -193 40 -328 q64 -221 138.5 -341t246.5 -275q133 -120 336 -186l372 -98q70 -20 70 -37q0 -20 -18 -26z" />
<glyph unicode="D" horiz-adv-x="1071" d="M-232 -423q-76 0 -76 59q0 64 94 84l284 41q167 25 270 86q249 147 388 434q128 265 127 574q0 304 -65 468q-139 347 -373 347q-97 0 -124 -307q-10 -104 -10 -385q0 -514 117 -962l-287 -1q1 25 26 178q34 226 34 651q0 328 1 329v-2q-6 189 -44 321q-21 59 -54 179 q145 76 291 76q350 0 519 -289q137 -233 137 -610q0 -152 -13 -232q-15 -99 -68 -222q-120 -287 -286 -452q-191 -190 -467 -249q-155 -32 -347 -102q-42 -14 -74 -14z" />
<glyph unicode="E" horiz-adv-x="1071" d="M1114 -350q-81 0 -186 17q-120 20 -179 50q-307 148 -382 189q-306 162 -306 214q0 16 16 59l21 60q61 217 62 606q0 476 -62 747l-24 90q-15 54 -15 92q0 13 4 32h932q0 -52 -22 -114q-28 -81 -67 -81q-18 0 -90 39.5t-103 39.5h-401q-7 0 -20 -53t-13 -70 q0 -42 3 -121.5t3 -119.5h401q1 0 161 41q4 -25 3 -47q0 -36 -23 -104q-27 -80 -53 -81q-81 61 -158 72q-24 4 -123 4h-55l-159 -1v-895q0 -207 101 -279q326 -231 613 -231q80 0 181 32.5t137 33.5q54 -148 54 -154q0 -26 -112 -48q-92 -19 -139 -19z" />
<glyph unicode="F" horiz-adv-x="980" d="M809 1470q-85 67 -134.5 84.5t-152.5 17.5q-193 0 -221 -59q-15 -28 -15 -92q0 -67 2 -110q23 -33 188 -34q77 0 190 15l191 23q-1 -56 -79 -190l-106 -176q-58 -103 -87 -186q-37 -103 -36 -353q0 -27 -47 -27q-98 0 -98 146q0 81 117.5 310.5t117.5 284.5q0 64 -275 64 q-31 0 -52 -1l-16 -32v-967q0 -83 71 -203q75 -126 77 -141l-3 -13l-360 108q90 353 90 926q0 239 -2 276q-6 163 -36 271t-78 251h868l1 -15q0 -5 -2 -17q-21 -81 -31 -102q-27 -53 -82 -59z" />
<glyph unicode="G" horiz-adv-x="1031" d="M903 -39q-542 0 -767 493q-91 199 -91 434q0 336 194 580q155 196 344 196q123 0 390 -14q-2 -52 -63 -146q-53 -87 -99 -127q-77 185 -215 185q-195 0 -297 -238q-76 -182 -76 -409q0 -242 92 -444q180 -398 375 -397q13 0 27 1q40 70 40 366q0 77 -20 109 q-27 44 -100 44q-77 0 -161 -96q-48 71 -113 210q136 15 384 15q96 0 204 -3q-69 -214 -69 -374q0 -187 92 -352q-22 -33 -71 -33z" />
<glyph unicode="H" horiz-adv-x="1135" d="M827 741q17 72 17 277q0 139 -34 334l-64 332h259v-19q0 -31 -23 -118q-25 -93 -27 -128q-15 -175 -15 -609q0 -293 13 -410q16 -125 104 -474q45 -184 252 -202q107 -10 276 -12q6 -26 7 -46q0 -58 -61 -76q-31 -10 -106 -10q-148 0 -262 81l-417 301q79 173 79 353 q0 312 -230 442q-66 37 -100 53q-66 31 -106 34q-6 -114 -6 -233q0 -144 28 -340q27 -82 54 -250h-276q69 385 69 634q0 144 -14 208q-18 80 -80 125l-101 70q-50 49 -51 147q0 55 58 55q42 0 90 -82q58 -98 71 -109q17 77 17 154q0 92 -39 268q-17 75 -18 80q0 7 252 140 h22q-97 -265 -97 -667q0 -29 13.5 -45t217 -135t228.5 -123z" />
<glyph unicode="I" horiz-adv-x="425" d="M55 0q91 298 91 837q0 414 -12 510q-6 40 -38 171q-27 107 -26 172h260q0 -42 -16 -102q-25 -93 -26 -101q-28 -147 -28 -443q0 -102 1.5 -306.5t1.5 -308.5q0 -227 79 -429h-287z" />
<glyph unicode="J" horiz-adv-x="747" d="M168 -272q-123 0 -259 70q-56 28 -56 40q0 32 32.5 78.5t61.5 46.5q11 0 97 -41t146 -41q177 0 269 216q44 101 44 377q0 96 -2 287t-2 286q0 359 2 359l1 -27q-5 205 -42 325q-12 1 -31 2q-98 0 -154 -72q-16 -20 -70 -133q-36 -71 -80 -71q-56 0 -56 44q0 135 83 202 q69 55 182 103q308 129 352 129h1h4q-6 -59 -36 -210q-27 -131 -28 -210l-27 -1328q-2 -101 -78 -235q-113 -197 -354 -197z" />
<glyph unicode="K" horiz-adv-x="1044" d="M1392 -442q-218 0 -432 172q-221 177 -221 215q0 36 12.5 103t12.5 102q0 210 -165 789q-151 -26 -209 -161q-2 -82 -2 -161q0 -281 70 -618h-253q42 185 42 288q0 71 -6 209q-6 145 -7 208q-47 -4 -56.5 -117t-49.5 -113q-43 0 -49 33v-2q2 0 2 73q0 133 117 229 q52 43 51 199q0 404 -80 695h249q-45 -287 -45 -616q0 -120 15 -121q65 0 161 78q141 113 186 192q56 96 56 263q0 96 -44 204h286l-60 -216q-37 -130 -82 -205l-76 -141q-47 -85 -91 -132l233 -937q39 -160 115 -268q99 -142 234 -142q49 0 141.5 32t142.5 32 q2 -166 -198 -166z" />
<glyph unicode="L" horiz-adv-x="700" d="M1045 -199q-156 0 -493 85l-500 137v11q0 50 31.5 150.5t31.5 151.5q0 163 5.5 491t5.5 491q0 191 -74 477l15 19q239 77 258 77l11 -1q-82 -313 -82 -860q0 -106 1 -316t1 -315q0 -169 65 -303q254 -153 596 -154q135 0 367 92h7q23 0 104 -175q-91 -58 -350 -58z" />
<glyph unicode="M" horiz-adv-x="1244" d="M811 1432q-37 -130 -91.5 -402.5t-92.5 -406.5q-17 -56 -61 -72l-4 9q-13 25 -211 862q-90 -490 -90 -1121q0 -98 5 -140q12 -53 28 -161h-263q0 63 29 164q33 118 38 165l60 525q0 1 19 130q12 79 12 133v425q0 1 -43 175h347v-119q0 -325 89 -556q86 238 86 461 q0 22 -7.5 64.5t-7.5 64.5q0 80 32 97h304q2 -432 12 -729q13 -399 144 -890q29 -114 102 -243q107 -191 324 -191q42 0 106 22q77 25 106 30q54 9 128 8q1 -109 -63 -143q-43 -22 -162 -22q-259 0 -443 106q-137 80 -344 302v9q0 33 27 101q25 62 25 100v6l-1 15z" />
<glyph unicode="N" horiz-adv-x="992" d="M683 20q-4 255 -23 387q-32 222 -123 364l-136 240q-48 77 -94 219q-56 171 -82 224v-1210q0 -144 39 -335q4 -17 39 -150q25 -91 27 -152h-253v1593q0 -2 -24 129q-44 234 -44 350q0 21 122 71l152 57h101q-44 -98 -44 -190q0 -87 53 -248q47 -144 97 -236l86 -176 q53 -103 103 -167q11 216 11 576q0 140 -35 278l-68 265h273q-10 -58 -27 -174q-10 -83 -10 -215q0 -178 10 -964q2 -174 52 -335q15 -45 28 -92q16 -54 16 -96q-101 -13 -246 -13z" />
<glyph unicode="O" horiz-adv-x="1004" d="M504 -11q-228 0 -364 342q-107 268 -107 540q0 270 98 517q129 320 355 320q227 0 361 -361q102 -276 102 -553q0 -238 -108 -492q-135 -313 -337 -313zM466 1605q-129 0 -190 -290q-40 -190 -40 -396q0 -263 40 -471q65 -345 220 -345q145 0 222 293q29 114 29 351 q0 858 -281 858z" />
<glyph unicode="P" horiz-adv-x="1083" d="M1334 -418q-144 0 -300 25q-191 31 -281 87l-250 166q-147 93 -269 133v18q0 5 27 104q25 90 25 199q0 9 -12 333q-82 -22 -105 -73l-32 -130q-26 -96 -71 -96q-63 0 -62 110q0 91 38 124l233 192l2 19q0 491 -121 845q169 109 401 109q427 0 427 -364q0 -227 -193 -406 q-106 -98 -389 -260v-306q9 -13 20 -76q15 -87 82 -244q82 -191 260 -303q173 -108 386 -108q173 0 396 131q34 -29 109 -164q-94 -65 -321 -65zM509 1523q-20 0 -80 -12l-20 -699q37 12 97 54q302 210 301 411q0 246 -298 246z" />
<glyph unicode="Q" horiz-adv-x="992" d="M1366 -504q-64 0 -232 27q-162 26 -292 146q-60 55 -214 252q-86 -26 -145 -25q-161 0 -290 192q-93 140 -150 340q-25 88 -25 119q0 52 -4 157t-4 157q0 163 33 281q48 164 136 301q120 183 249 183q248 0 382 -347q99 -260 99 -560q0 -260 -37 -379q-20 -63 -159 -341 q7 -26 51 -92q194 -281 461 -281q109 0 235 67l97 -168q-98 -29 -191 -29zM437 1524q-120 0 -184 -236q-44 -166 -44 -335q0 -146 2 -246q28 40 58 40q87 0 179 -147q56 -92 131 -277q61 -152 74 -157q72 185 72 448q0 277 -49 524q-75 386 -239 386zM222 610v-39v-21 q0 -155 53 -321q74 -232 204 -231q70 0 70 30q0 2 -14 39l-110 297q-42 83 -203 246z" />
<glyph unicode="R" d="M1470 -426q-151 0 -389 117l-231 116q-180 94 -200 121q27 50 27 152q0 96 -25 195q-66 249 -86 315q-74 242 -117 274h-51q-108 0 -148 -61q-2 -63 -2 -127q0 -368 93 -675q-60 -16 -130 -16q-129 0 -129 37q0 25 11 64q13 47 16 62q1 11 1 170q0 70 2.5 208.5 t2.5 207.5q0 398 -45 624l-32 126q-20 75 -20 126q275 108 424 108q177 0 313 -92q155 -104 154 -273q0 -119 -81 -220q-50 -63 -151 -137q-81 -60 -81 -74q0 -13 29 -101l205 -621q54 -162 204 -292l162 -140q109 -81 191 -81q42 0 124.5 16t125.5 16q0 -145 -167 -145z M406 1616q-144 0 -143 -101v-554q69 1 171 44q255 107 256 336q0 126 -79 200.5t-205 74.5z" />
<glyph unicode="S" d="M-307 -464q-50 -13 -114 -13q23 56 80 152q88 103 226 118q218 26 259 34q121 27 240 107q347 232 347 601q0 217 -180 382q-76 70 -98 70q-4 0 -9 -13l-64 -184q-31 -80 -77 -257q-12 -77 -55 -227q-137 123 -138 175q0 33 100 232l127 256q12 21 31 65 q-164 98 -269 219q-54 64 -54 152q0 125 119 211q108 76 240 76q247 0 434 -16l-264 -422q-23 -56 -78 -167q16 -23 26 -32q34 -28 116 -76q79 -47 115 -80q158 -142 159 -403q0 -239 -166 -436q-160 -191 -394 -253q-126 -29 -374 -104q-107 -38 -285 -167zM416 1589 q-83 0 -134 -67q-44 -61 -44 -148q0 -72 39 -125q71 -97 133 -102q102 180 102 311t-96 131z" />
<glyph unicode="T" horiz-adv-x="1027" d="M1540 1481q-146 0 -356 41l-202 43q-118 22 -206 22q-36 -27 -57 -129q-17 -80 -17 -150v-812q0 -325 150 -584q4 -5 46 -69q38 -58 38 -61q0 -27 -27 -27t-195 117l-206 149v11q77 185 77 256v1020q0 153 -61 292q-17 1 -34 1q-104 0 -237.5 -78.5t-138.5 -78.5 q-15 0 -61.5 53.5t-46.5 69.5q0 20 66 56q218 120 491 121q172 0 276 -29l337 -94q200 -53 343 -53q27 0 81 16.5t84 16.5v-86q0 -16 -64 -27q-47 -7 -80 -7z" />
<glyph unicode="U" d="M869 1443q0 -205 13.5 -613.5t13.5 -612.5q-72 -215 -398 -215q-337 0 -337 294v799q0 221 -91 516q20 26 128 62q102 33 144 34q-69 -238 -68 -351l1 -999q0 -252 250 -251q82 0 152 30q91 40 91 112l1 366q0 577 -67 912q-1 1 -25 90q-13 56 -13 91v12h258l-32 -142 q-21 -98 -21 -134z" />
<glyph unicode="V" horiz-adv-x="938" d="M686 195q0 -131 45 -207h-379q1 12 8 44q7 28 7 44q0 596 -322 1477v18q187 94 193 94q21 0 25 -19q5 -91 17 -252q22 -217 75 -498l67 -377q45 -220 109 -366q56 334 103 647q58 387 58 529q0 94 -15 305q56 39 247 43q-238 -925 -238 -1482z" />
<glyph unicode="W" horiz-adv-x="1285" d="M676 618q-13 -32 -33 -207q-20 -166 -20 -218q0 -33 15.5 -96.5t15.5 -96.5h-309q0 364 -77 789q-90 490 -235 726q23 37 244 166q7 -158 40 -474l51 -284l104 -570q5 -29 20 -55l7 6l115 696q9 49 40 49q13 0 25 -6l241 -756l5 4q-6 80 -6 135q0 59 12 145q9 72 19 144 q27 254 27 426q0 153 -27 257q-39 152 -40 151q0 15 148 97q123 69 180 94q90 42 217 42q335 0 334 -168q-61 0 -170.5 45t-171.5 45q-113 0 -202 -103q-79 -91 -132 -336q-47 -211 -47 -370v-762q0 -146 182 -274q-136 0 -193 17q-28 9 -180 86q-28 15 -80 27q2 34 3 63 q0 160 -41 312q-31 98 -71 254h-10z" />
<glyph unicode="X" horiz-adv-x="1031" d="M744 -297v44v7q0 181 -65 415q-66 236 -162 395q-74 -53 -133 -323q-44 -205 -55 -370h-263l343 768q26 59 25 102q0 88 -148 341q-112 193 -215 332q146 133 246 135q53 -396 190 -618q15 17 35 60q101 206 101 467q0 47 -2 103h279l-306 -681q-38 -85 -38 -114 q0 -7 25 -75q129 -334 170 -425q103 -236 218 -400v-17q-88 -65 -121 -86q-90 -59 -124 -60z" />
<glyph unicode="Y" horiz-adv-x="851" d="M1574 1561q-16 0 -117.5 71.5t-192.5 71.5q-88 0 -177 -77q-263 -227 -424 -606q-34 -81 -35 -376q0 -268 25 -387q36 -184 157 -356l-37 -20q-131 108 -356 156l66 147v708q-82 164 -218 379l-237 366q229 130 237 130l5 -1q26 -241 190 -558q72 -140 89 -140 q10 0 65 102q99 187 115 319q2 59 28 171q250 77 258 80q157 43 264 43q90 0 208 -42q147 -52 147 -120q0 -61 -60 -61z" />
<glyph unicode="Z" horiz-adv-x="1004" d="M69 13q175 314 248 523l189 533q119 363 122 527q-47 22 -92 23q-67 0 -172 -70q-66 -45 -87 -145l-25 -161q-23 -80 -102 -96q-4 37 -4 70q0 37 18 98q21 67 24 97q4 47 3.5 108.5t-3.5 138.5l16 42l335 18q180 9 305 9h31h50q-25 -77 -104 -240q-98 -200 -118 -246 q-104 -247 -205 -561q-126 -396 -130 -566h266q54 0 97 62q38 54 47 105q4 22 6 114q7 242 144 242h1q0 -52 -16.5 -155t-16.5 -154q0 -54 28.5 -158t28.5 -158h-884z" />
<glyph unicode="[" horiz-adv-x="747" d="M706 1956q0 -31 -28 -52.5t-60 -21.5q-26 0 -47 42q-34 67 -45 80q-34 43 -92 43q-59 0 -117 -36q-45 -161 -46 -434q0 -243 4 -729t4 -729q0 -119 30 -140q85 -55 159 -55q26 0 70.5 17t67.5 17q27 0 51 -16.5t24 -42.5q0 -59 -94 -101q-80 -34 -148 -35q-112 0 -228 57 q-58 28 -58 126q0 18 3.5 55t3.5 57l-13 1664q0 103 -34 255q-10 44 -10 54q0 31 57 91q202 22 314 22q123 0 168 -29q64 -39 64 -159z" />
<glyph unicode="\" horiz-adv-x="753" d="M477 -115v50q31 21 31 42q0 27 -26 114l-407 1401l-25 101q-22 58 -72 62v63l222 2v-62q-36 -4 -36 -30q0 -20 25 -103l417 -1442q20 -71 26 -84q21 -44 63 -59v-53z" />
<glyph unicode="]" horiz-adv-x="747" d="M626 58q-1 -20 2 -57t3 -55q0 -98 -58 -126q-118 -56 -228 -57q-67 0 -147 35q-94 43 -95 101q0 26 26 43q22 16 50 16q22 0 67 -17t71 -17q75 0 158 55q27 20 31 112q-2 -74 -3 127q0 226 5 678.5t5 677.5q0 274 -45 437q-59 36 -118 36q-58 0 -92 -43q-10 -12 -44 -80 q-22 -42 -48 -42q-36 0 -61.5 23t-25.5 57q0 115 65 155q47 27 166 27q112 0 315 -22q56 -60 56 -91q0 -10 -10 -54q-34 -155 -34 -255z" />
<glyph unicode="^" horiz-adv-x="960" d="M710 1134l-231 358l-250 -358h-200l372 550h152l353 -550h-196z" />
<glyph unicode="_" horiz-adv-x="1045" d="M1030 -205q-74 0 -220.5 3t-219.5 3h-461q-29 0 -89.5 -9.5t-91.5 -9.5q-37 0 -36 33q0 33 43 132l89 -8l971 8q7 0 22.5 -2.5t22.5 -2.5q15 0 44.5 5t45.5 4h18q-13 -66 -81 -141q-12 -15 -57 -15z" />
<glyph unicode="`" horiz-adv-x="570" d="M410 1307q-37 0 -139 65l-67 35q-37 21 -58 50q-60 81 -60 173q0 31 10 62q110 -11 136 -49l32.5 -68.5t109.5 -137t97 -115.5q-38 -15 -61 -15z" />
<glyph unicode="a" horiz-adv-x="708" d="M468 0q58 191 57 384q0 171 -80 171q-101 0 -184 -153q-38 -70 -38 -179q0 -182 124 -273q61 -45 285 -125q-64 -6 -106 -7q-216 0 -336 97q-133 106 -132 317q0 175 117 278q36 32 218 129q118 61 117 139q0 86 -92 86q-31 0 -101 -54t-176 -54q37 110 63 143 q45 58 142 58q148 0 215 -51q76 -59 76 -204q0 -52 -3 -155t-3 -154q0 -139 18.5 -242.5t19.5 -150.5h-201z" />
<glyph unicode="b" horiz-adv-x="722" d="M346 -16q-34 0 -102.5 10.5t-102.5 10.5q-31 0 -65 -6q0 43 20 233q28 264 28 513q0 261 -30 421q-2 16 -22 81q-15 50 -14 82q0 37 194 37q-27 -277 -27 -287q0 -151 31 -151q22 0 64 13.5t64 13.5q106 0 212.5 -132.5t106.5 -353.5q0 -290 -223 -443q-60 -42 -134 -42z M356 827q-74 0 -107 -155q-21 -99 -21 -218q0 -368 108 -368q187 0 187 390q0 351 -167 351z" />
<glyph unicode="c" horiz-adv-x="579" d="M342 0q-87 0 -180 104q-117 130 -117 377q0 236 105 367q97 123 203 123q70 0 126 -51.5t56 -120.5q0 -104 -113 -104q-70 0 -70 65q0 31 11 47q13 23 16 37l-4 13q-20 10 -42 9q-29 0 -84 -77q-64 -93 -64 -260q0 -139 26 -199q71 -164 201 -164q25 0 74.5 6t74.5 6 q-11 -63 -133 -152q-36 -26 -86 -26z" />
<glyph unicode="d" horiz-adv-x="735" d="M385 0q-160 0 -287 220q-53 90 -53 230q0 160 88 318q102 187 246 187q34 0 75 -24l69 -39q4 105 5 105v-3q0 44 -10 132t-10 132q0 33 2 65q41 58 146 57h4h46q0 -45 -15 -163q-49 -398 -49 -665q0 -223 34 -404q11 -49 30 -148h-321zM389 827q-81 0 -123 -141 q-31 -101 -30 -209q0 -391 185 -391q90 0 89 137l-1 462q0 142 -120 142z" />
<glyph unicode="e" horiz-adv-x="593" d="M562 709q0 -91 -48 -91h-270q-38 0 -50 -22q-1 -18 -2.5 -57.5t-1.5 -58.5q0 -50 9 -87q38 -151 111 -198q60 -38 225 -42q-1 -48 -91 -103q-82 -50 -135 -50q-67 0 -147 90q-104 118 -104 379q0 223 65 327q98 160 224 160q120 0 171 -65q44 -58 44 -182zM348 853 q-53 0 -89.5 -34t-38.5 -86h153q33 0 33 45q0 75 -58 75z" />
<glyph unicode="f" horiz-adv-x="547" d="M357 1468q-83 0 -83 -170q0 -81 40 -110q31 -23 101 -23q16 0 49.5 1t52.5 1l7 -5q11 -20 11 -291v-48q-56 15 -114 130q-53 106 -122 106q-54 0 -54 -366q0 -136 24 -358q29 -276 33 -335h-200q20 94 19 199v903q0 39 -82 120l111 28q16 29 19 140q5 107 36 154 q47 71 173 71q162 0 161 -163q-167 16 -182 16z" />
<glyph unicode="g" horiz-adv-x="746" d="M92 -480q0 141 139 159l321 39q101 12 101 99q0 65 -157 103l-294 52q-157 29 -157 73q0 29 71 106t71 107q-83 121 -100 152q-42 82 -42 178q0 190 111 272q91 67 292 82q133 157 197 157q12 0 35 -1h34q6 -31 6 -59q0 -53 -39.5 -77.5t-80.5 -46.5q-40 -29 -40 -36 q0 -6 24 -42q55 -76 75 -135t20 -150q0 -133 -56 -204q-53 -66 -179 -107q-53 -12 -146 -46q-48 -25 -48 -60q0 -72 148 -96q271 -44 273 -45q148 -45 149 -171q0 -102 -78 -148q-58 -34 -171 -42q-93 -2 -186 -6q-26 0 -73 -11q-9 -5 -98 -65q-46 -31 -122 -31zM344 830 q-120 0 -121 -230q0 -92 35 -178q44 -113 121 -113q64 0 96 93q23 67 23 149q1 279 -154 279z" />
<glyph unicode="h" horiz-adv-x="655" d="M566 -315q-90 0 -90 229q0 94 8 282.5t8 283.5q0 353 -145 353q-67 0 -109.5 -40t-42.5 -107q0 -80 2.5 -240.5t2.5 -241.5q0 -40 11 -102l16 -102l-185 -2q29 128 34 294v299q0 47 1.5 141.5t1.5 141.5q0 310 -41 505q21 -2 41 -2q25 0 72.5 5t71.5 5q-20 -118 -19 -322 q0 -70 1 -141q101 38 179 38q196 0 196 -188v-633q0 -195 105 -386q-79 -70 -119 -70z" />
<glyph unicode="i" horiz-adv-x="348" d="M185 1120q-76 0 -76 111q0 47 26 81.5t70 34.5q36 0 58 -50q16 -40 16 -82q-1 -95 -94 -95zM91 0q0 39 13 101l20 98q12 93 12 251q0 283 -66 478h209q0 -50 -22.5 -149.5t-22.5 -151.5v-242q0 -65 23.5 -193t23.5 -192h-190z" />
<glyph unicode="j" horiz-adv-x="355" d="M195 1185q-76 0 -76 86q0 113 81 113q40 0 66 -42q22 -37 22 -78q0 -79 -93 -79zM233 525q0 -140 5.5 -420t5.5 -420q0 -98 -99 -99q-47 0 -129 99q86 83 114 224q17 87 17 254q0 282 -33 562q-1 15 -20 127q-12 79 -12 127h208q-17 -88 -46 -265q-11 -75 -11 -189z" />
<glyph unicode="k" horiz-adv-x="695" d="M702 -121q-81 44 -250 119q2 55 2 65q0 91 -32 236q-39 185 -93 186q-74 0 -111 -49q-1 -28 -1 -56q0 -65 20.5 -192.5t20.5 -192.5h-193q0 77 12.5 232t12.5 232q0 131 -13 405q-12 244 -12 381v24v92h184q0 -43 -12 -113q-16 -90 -19 -113q-15 -135 -14 -280 q0 -136 14 -256q20 -4 40 -4q59 0 138 61.5t95 117.5q21 71 21 155q0 72 -9 143q17 18 37 19q43 0 76 -61q28 -54 28 -101q0 -115 -49 -203q-31 -55 -131 -163q-1 -11 -1 -23q0 -22 36 -150q36 -121 51 -156q25 -59 86 -162q63 -109 87 -162v-7q0 -25 -19 -25q-1 1 -2 1z " />
<glyph unicode="l" horiz-adv-x="347" d="M52 -4q1 34 15 85q20 66 23 83q25 134 24 613q0 348 -12 423q-15 87 -30 199q118 -20 172 -20q14 0 24 1q1 -22 1 -49q0 -39 -4 -104q-5 -79 -5 -105q-21 -704 -21 -751q0 -76 38 -376z" />
<glyph unicode="m" horiz-adv-x="1149" d="M757 -220q-9 5 -8 11q0 4 3 11.5t4 9.5q179 293 179 696q0 140 -64 245q-76 125 -207 126q-40 0 -41 -202q0 -356 20 -516q20 -150 20 -161h-210q53 242 53 458q0 69 -7 203q-6 144 -6 205l-163 -23q-60 -12 -79.5 -56.5t-19.5 -171.5q0 -394 45 -615h-199q38 387 38 539 q0 195 -34 416h20q20 0 57.5 -7.5t57.5 -7.5q56 0 169 8t170 8q286 0 409 -101q137 -112 138 -390q0 -261 -144 -501q-97 -161 -201 -184z" />
<glyph unicode="n" horiz-adv-x="774" d="M266 -209q-11 0 -13 9l5 18q180 109 245 267q53 126 53 362q0 156 -44 265q-60 152 -192 152q-85 0 -84 -138v-726h-164q0 43 10 113l16 112q10 106 10 230q0 72 -10.5 219t-10.5 219q0 16 3 35l268 11h7q84 0 171 -64q185 -134 186 -433q0 -290 -209 -530 q-71 -82 -223 -117q-17 -4 -24 -4z" />
<glyph unicode="o" horiz-adv-x="730" d="M372 -11q-185 0 -301 293q-26 64 -26 181q0 152 90 316q102 190 236 190q139 0 235 -170q85 -147 85 -301q0 -243 -118 -389q-97 -120 -201 -120zM369 861q-9 0 -18 -2q-79 -45 -101 -167q-34 -187 -34 -232q0 -48 34 -227q29 -155 111 -154q93 0 134 179q25 110 24 256 q0 347 -150 347z" />
<glyph unicode="p" horiz-adv-x="749" d="M358 0q-16 0 -120 34q12 -162 30 -487h-189q0 93 16.5 279.5t16.5 282.5q0 369 0 361q-5 210 -30 361q-2 18 -23 72q-17 44 -16 73l1 11q76 34 198 73l2 -118q65 25 129 25q150 0 237 -183q69 -146 69 -315q0 -117 -15 -170q-84 -299 -306 -299zM364 854 q-129 0 -128 -364q0 -389 137 -389q135 0 135 324q0 429 -144 429z" />
<glyph unicode="q" horiz-adv-x="722" d="M481 49q-13 -1 -49.5 -22.5t-71.5 -21.5q-180 0 -293 269q-37 91 -36 228q0 183 82 318q98 160 270 159h193l61 31v-1436h-183q42 110 42 174q0 50 -7.5 151t-7.5 150zM481 766q0 113 -93 113q-107 0 -156 -127q-36 -90 -36 -217q0 -410 156 -410q32 0 80.5 46t48.5 79 v516z" />
<glyph unicode="r" horiz-adv-x="580" d="M481 733q-124 119 -166 119q-21 0 -41 -2q-36 -28 -36 -97v-224q0 -63 42 -529h-187q0 53 16 161q13 87 14 224q0 214 -52 541q109 28 200 29h233q58 0 58 -85q0 -39 -21 -83q-24 -53 -60 -54z" />
<glyph unicode="s" horiz-adv-x="668" d="M23 -53q0 50 24 118l41 114q27 -2 101 -54q70 -50 137 -50q175 0 176 178q0 103 -109 186l-203 134q-109 86 -109 198q0 113 70 175q66 59 180 59q20 0 53 -6q40 -7 54 -9q66 -6 161 -6q0 -107 -95 -227q-21 11 -44.5 54t-47.5 60q-39 31 -108 31q-15 0 -32 -1 q-63 -52 -62 -119q0 -52 123 -148l202 -128q94 -74 94 -220q0 -269 -290 -299h-20q-72 0 -186 -8q-30 -15 -110 -32z" />
<glyph unicode="t" horiz-adv-x="493" d="M245 833l-8 -530q-1 -65 38 -114q23 -29 80 -68q49 -34 59 -52q-97 -107 -151 -107q-37 0 -134 118l7 788l-110 55l2 51l102 9l-9 227l167 83q2 -16 3 -25q0 -118 -25 -286l186 -15l6 -297q-33 25 -86 108q-33 48 -127 55z" />
<glyph unicode="u" horiz-adv-x="750" d="M666 0h-291q-146 0 -236 144q-79 125 -79 279q0 124 38 216q0 1 119 273q71 163 104 278q64 -48 79 -60q55 -45 60 -70q-126 -151 -177 -314q-45 -146 -45 -358q0 -121 37 -204q50 -110 156 -110q120 0 120 339v7l-1 133q0 61 -20.5 185.5t-20.5 189.5h211 q-55 -190 -55 -364z" />
<glyph unicode="v" horiz-adv-x="615" d="M460 0h-288q0 750 -182 1182q44 26 116 52q108 40 120 46q-18 -74 -19 -169q0 -443 106 -899q1 -10 13 -22q99 393 103 765h191q0 -59 -27 -130l-49 -124q-84 -236 -84 -701z" />
<glyph unicode="w" horiz-adv-x="996" d="M828 0h-271q-6 242 -75 378q-39 -76 -66 -188l-43 -190h-234q1 25 2 79q1 45 1 76q0 22 -11.5 61.5t-12.5 57.5q-1 120 -27 359q-2 16 -41 161q-33 123 -32 142v14h181q0 -546 75 -754q59 85 108 276q49 198 100 278q44 -71 94 -259q47 -178 105 -257q47 66 91 265 q40 182 40 284q0 97 -28 129q-25 26 -124 51v16q0 56 31 97.5t85 41.5q79 0 128 -84q44 -71 45 -154q0 -141 -73 -452q-21 -69 -42 -178z" />
<glyph unicode="x" horiz-adv-x="717" d="M433 496l146 -247q97 -168 118 -249h-233v66q1 221 -89 292q-38 -36 -84 -149q-12 -31 -21 -90q-9 -63 -17 -90q-18 -49 -82 -49q-27 0 -77.5 10t-75.5 10q13 39 156 261q131 204 132 247q0 28 -253 432h238q20 -265 83 -308q52 44 79 144l34 164h220q-44 -98 -129 -227z " />
<glyph unicode="y" horiz-adv-x="683" d="M583 -504l-130 -2q-63 0 -198 24q-160 27 -159 54q0 63 65 203q54 120 103 194v11q-60 109 -90 177q-66 153 -115 744h221q0 -42 -16 -101q-26 -94 -27 -99q-12 -58 -12 -140q0 -321 122 -431q189 244 189 546q0 216 -207 360q38 113 124 178q212 -174 212 -494 q0 -248 -135 -526q-39 -79 -278 -474v-44q37 -7 136 -45q83 -32 137 -32q52 0 171 77h24q-61 -138 -137 -180z" />
<glyph unicode="z" horiz-adv-x="708" d="M286 158v-57h174q65 0 144 109q33 -54 33 -114q0 -64 -16 -121q-43 -2 -82 -2q-134 0 -496 15v18q0 21 151 297q172 312 183 336q36 75 64 199q-25 1 -51 1q-101 0 -228 -94q-44 67 -44 112q0 71 39 121v-17h517v-41z" />
<glyph unicode="~" horiz-adv-x="824" d="M513 731q-36 0 -107 85t-105 85q-47 0 -96 -85l-63 -126l-75 225l108 96q77 66 115 66q53 0 124.5 -74.5t110.5 -74.5q34 0 87 81l67 113q28 -74 71 -210l-63 -54l-78 -80q-51 -47 -96 -47z" />
<glyph unicode="&#xa1;" horiz-adv-x="360" d="M227 1268q-40 0 -79 17q-48 21 -47 56v154q0 18 55 82h11q88 0 88 -69v-238q-16 -2 -28 -2zM98 10q-21 0 -40 8q0 65 21 189q21 130 22 189q2 161 12 480q5 76 24 168q28 133 67 133v-1091q0 -31 -36.5 -53.5t-69.5 -22.5z" />
<glyph unicode="&#xa2;" horiz-adv-x="744" d="M568 886q-70 0 -70 65q0 31 10 48q13 23 17 37l-3 12q-17 7 -50 9l-31 -685q33 -15 67 -15q26 0 75 6t73 6q-10 -60 -132 -152q-38 -28 -92 -26v-24q1 -180 -52 -180q-23 0 -44 25.5t-21 50.5q0 -7 13 169q-204 145 -204 455q0 384 249 463q2 83 7 109q15 70 63 70 q44 0 44 -61q0 -21 -4 -53l-6 -53q85 -5 140 -45q64 -47 64 -127q0 -104 -113 -104zM264 734q0 -187 75 -280l28 579q-103 -73 -103 -299z" />
<glyph unicode="&#xa3;" horiz-adv-x="1106" d="M949 37l-502 26q-42 0 -125.5 -15t-125.5 -15q-4 0 -125 27q120 223 203 439q-43 1 -54 2q-36 0 -108 -11t-108 -11l-8 17l78 143q65 -15 246 -12q17 48 44 145h-20q-115 0 -196 -12q-88 -13 -115 -13l-7 16l81 139q66 -2 199 -4q-94 112 -95 255q0 87 42.5 185 t104.5 159q179 173 332 173q236 0 235 -164q0 -27 -18 -57q-150 18 -193 19q-150 0 -240 -83q-94 -85 -95 -233q0 -169 144 -256l121 -1q10 0 68 3q40 4 67 -1l106 23l10 -22q-1 -22 -46 -84t-64 -62q-16 0 -43 4q-34 4 -44 4q-70 5 -190 9q-15 -64 -40 -146q103 -2 121 -2 q67 0 229 26l10 -22q-1 -22 -46 -84t-63 -62q-16 0 -43 3q-34 4 -44 4q-79 6 -207 10q-39 -109 -41 -113q-15 -54 -15 -122q0 -47 22 -61q52 -2 102 -2q99 0 225 25q137 27 213 71h8q16 0 27 -63q10 -49 10 -80q0 -66 -27 -114z" />
<glyph unicode="&#xa4;" horiz-adv-x="1267" d="M385 960q0 -81 8 -155q38 0 125 -1q82 -1 125 -1q20 0 60.5 4.5t59.5 4.5q9 0 9 -11q0 -18 -53.5 -91t-69.5 -73q7 0 -69 7q-45 6 -173 9q1 -65 22 -195q63 -207 263 -307q77 -38 119 -38q23 0 69 7q106 107 141 107q40 0 72 -76l42 -113q-21 -32 -70 -32 q-410 0 -589 111q-227 141 -256 526q-187 -16 -172 -16q-34 0 -35 25l121 173q27 -10 81 -20q-9 77 -8 147q-64 -16 -192 -32v20l133 190q25 -7 74 -18q38 216 169 391q156 205 354 205q123 0 390 -13q-2 -50 -63 -146q-54 -86 -100 -128q-76 187 -215 186q-157 0 -242 -141 q-98 -162 -121 -354l254 -1q42 0 102 8q87 12 100 14v-24q0 -17 -55 -88t-70 -71q-61 0 -170 5q-122 5 -170 5z" />
<glyph unicode="&#xa5;" horiz-adv-x="1061" d="M483 612q-50 0 -154 -12.5t-156 -12.5v17l146 121q74 -11 103 -11h61v130q-47 0 -143.5 -12t-145.5 -12v17l146 123q33 -13 61 -14h57q-67 136 -210 357l-220 335q229 130 237 130h5q26 -242 190 -559q72 -140 89 -140q10 0 65 102q101 187 115 319q4 59 29 173 q109 0 295 61q114 38 131 38q16 0 16 -12q0 -20 -113 -123q-268 -243 -424 -606q-11 -26 -18 -74h4q147 0 190 9q66 15 78 15h55v-20q-114 -115 -152 -115q-33 0 -92 3q-66 4 -94 5q-4 -60 -5 -130h62q65 0 103 5l50 12q31 6 53 6h54v-19q-114 -115 -152 -116q-31 0 -85 4 q-61 4 -86 5q2 -252 28 -370q36 -173 154 -339l-37 -20q-131 108 -356 156l66 147v427z" />
<glyph unicode="&#xa7;" horiz-adv-x="669" d="M535 482q90 -114 90 -222q0 -269 -290 -299q-56 -1 -168 -13q-96 -13 -107 -13q0 50 23 118l42 114q16 -1 64.5 -59.5t131.5 -58.5q177 0 177 178q0 102 -111 193l-208 152q-112 98 -112 215q0 183 171 223q-158 120 -158 251q0 107 64.5 170.5t170.5 63.5q33 0 76 -18 q70 -27 74 -28q45 -13 172 -12q0 -15 2.5 -44.5t2.5 -43.5q0 -54 -44 -111l-142 96q-86 59 -154 59q-15 0 -31 -1q-63 -52 -62 -120q0 -70 138 -170l195 -139q38 -36 66.5 -105t28.5 -123q0 -179 -102 -253zM472 818l-68 64q-39 37 -114 35l-32 -2q-61 -50 -62 -119 q0 -76 245 -247q70 42 69 154q0 59 -38 115z" />
<glyph unicode="&#xa8;" horiz-adv-x="698" d="M476 1245q-87 0 -87 129q0 34 22 75q26 49 60 49q52 0 65 -37q1 -4 10 -78q-6 -15 -8 -52.5t-13 -54.5q-20 -31 -49 -31zM167 1247l-12 -4q-12 -4 -20 -4q-56 0 -56 122q0 36 22 83q27 55 62 55q50 0 62 -45q2 -42 6 -85q4 -20 -11 -70q-33 -52 -53 -52z" />
<glyph unicode="&#xaa;" horiz-adv-x="708" d="M468 0q58 191 57 384q0 171 -80 171q-101 0 -184 -153q-38 -70 -38 -179q0 -182 124 -273q61 -45 285 -125q-64 -6 -106 -7q-216 0 -336 97q-133 106 -132 317q0 175 117 278q36 32 218 129q118 61 117 139q0 86 -92 86q-31 0 -101 -54t-176 -54q37 110 63 143 q45 58 142 58q148 0 215 -51q76 -59 76 -204q0 -52 -3 -155t-3 -154q0 -139 18.5 -242.5t19.5 -150.5h-201z" />
<glyph unicode="&#xab;" horiz-adv-x="1046" d="M562 672l-5 -7q-6 9 -53 45q-40 31 -40 43q0 17 35 36q32 17 29 28q37 -1 128 114q66 83 117 181l42 87q31 61 54 75q77 -104 77 -154q0 -21 -156 -162q-161 -145 -173 -216l214 -174q167 -142 167 -183q0 -53 -73 -67l-115 -14l1 9q0 37 -70 124q-86 108 -94 124 q-18 36 -38 61q-32 40 -49 41zM169 671l-6 -7q-5 6 -45 38q-36 27 -36 38t54 44q1 5 1 10q33 -1 115 97q58 71 103 153l36 75q26 52 47 64q69 -90 69 -131q0 -20 -136 -139q-141 -123 -154 -183l189 -148q146 -120 146 -156q0 -45 -65 -58l-102 -12l2 8q0 31 -62 106 q-75 92 -82 106q-44 79 -76 85z" />
<glyph unicode="&#xac;" horiz-adv-x="804" d="M590 758q-39 7 -97 8q-40 0 -120 -2h-120q-25 0 -71.5 -10t-71.5 -10q-31 0 -30 33q0 22 11 62q18 58 18 63h536q20 0 59.5 3.5t57.5 3.5q-28 -168 -67 -349q-11 -15 -91 -15q-32 0 -32 31q0 29 9 89.5t9 90.5v2z" />
<glyph unicode="&#xad;" horiz-adv-x="954" d="M794 550q-52 21 -192 21h-347q-75 0 -140.5 -31t-85.5 -31q0 50 23 116l41 111l44 -29l639 7q38 0 55 25h49q-6 -26 -39.5 -101t-46.5 -88z" />
<glyph unicode="&#x2212;" horiz-adv-x="954" d="M794 550q-52 21 -192 21h-347q-75 0 -140.5 -31t-85.5 -31q0 50 23 116l41 111l44 -29l639 7q38 0 55 25h49q-6 -26 -39.5 -101t-46.5 -88z" />
<glyph unicode="&#xaf;" horiz-adv-x="546" d="M456 1677q-82 22 -239 23q-42 0 -120.5 -24t-117.5 -24v22l80 160l53 -23h319q52 0 73 20h60q-7 -21 -49.5 -82.5t-58.5 -71.5z" />
<glyph unicode="&#x2c9;" horiz-adv-x="546" d="M456 1677q-82 22 -239 23q-42 0 -120.5 -24t-117.5 -24v22l80 160l53 -23h319q52 0 73 20h60q-7 -21 -49.5 -82.5t-58.5 -71.5z" />
<glyph unicode="&#xb0;" horiz-adv-x="560" d="M258 1292q-109 0 -161 103q-39 79 -39 200q0 102 41 200q53 125 140 125q98 0 165 -137q55 -114 55 -223q0 -67 -66 -165q-71 -103 -135 -103zM242 1754q-37 0 -59 -63q-16 -47 -16 -93q0 -146 83 -146q27 0 57 51q28 47 28 76q0 49 -23 106q-28 69 -70 69z" />
<glyph unicode="&#xb2;" horiz-adv-x="954" d="M344 174q88 -49 170 -49q129 0 286 134q72 -120 72 -259h-822l435 512q217 269 217 565q0 356 -252 356q-202 0 -202 -215q0 -103 70 -136q38 -18 162 -25q1 -5 3 -13q0 -37 -61.5 -109t-97.5 -72q-96 0 -161 111q-56 96 -56 199q0 156 126 270q123 110 280 110 q198 0 318 -214q52 -94 51 -249q0 -141 -51 -260q-82 -192 -487 -656z" />
<glyph unicode="&#xb3;" horiz-adv-x="942" d="M456 0q-124 0 -188 38q-222 129 -223 335q0 119 76.5 208t193.5 89q36 0 108 -20q87 -22 87 -44q0 -32 -41 -87t-71 -56q-71 39 -95 39q-145 0 -145 -174q0 -96 117 -191q45 -37 136 -36q145 0 220 141q59 113 59 272q0 128 -59 225q-65 106 -182 137q-36 10 -132 31 q140 79 220 136q102 75 102 221q0 194 -210 194q-182 0 -181 -145q0 -66 146 -103q-23 -40 -63 -85q-52 -56 -81 -56q-63 0 -94 80q-25 60 -25 133q0 131 100 210q92 71 228 71q166 0 257 -89.5t91 -255.5q0 -101 -36 -159l-96 -129q-6 -9 -11 -20q120 -121 166 -198 q67 -114 67 -249q0 -194 -123 -327q-125 -136 -318 -136z" />
<glyph unicode="&#xb4;" horiz-adv-x="570" d="M164 1307q-23 0 -61 15q10 26 97 116t113 138q7 25 29 67q26 38 137 49q10 -32 9 -62q0 -91 -60 -173q-21 -28 -56 -48l-69 -37q-101 -65 -139 -65z" />
<glyph unicode="&#xb6;" horiz-adv-x="1087" d="M815 11v1279h110v-1279h-110zM184 1106q0 -118 81.5 -201t199.5 -83h139v474h110v-1279h-110v697h-139q-166 0 -278.5 115t-112.5 280q0 164 114 268q110 99 277 99l503 1v-109l-503 -1q-124 0 -202.5 -70t-78.5 -191z" />
<glyph unicode="&#xb7;" horiz-adv-x="333" d="M163 722q-96 0 -96 158q0 49 21 102q26 66 67 66q48 0 79 -72q26 -59 26 -115q0 -34 -32 -84q-33 -55 -65 -55z" />
<glyph unicode="&#x2219;" horiz-adv-x="333" d="M163 722q-96 0 -96 158q0 49 21 102q26 66 67 66q48 0 79 -72q26 -59 26 -115q0 -34 -32 -84q-33 -55 -65 -55z" />
<glyph unicode="&#xb9;" horiz-adv-x="373" d="M247 438q0 -233 56 -450h-248v18q0 44 16 119q21 97 23 120q28 217 29 577q0 312 -106 500q26 31 155.5 116.5t167.5 97.5v-21q0 -50 -20 -146q-27 -124 -30 -148q-43 -306 -43 -783z" />
<glyph unicode="&#xba;" horiz-adv-x="730" d="M372 -11q-185 0 -301 293q-26 64 -26 181q0 152 90 316q102 190 236 190q139 0 235 -170q85 -147 85 -301q0 -243 -118 -389q-97 -120 -201 -120zM369 861q-9 0 -18 -2q-79 -45 -101 -167q-34 -187 -34 -232q0 -48 34 -227q29 -155 111 -154q93 0 134 179q25 110 24 256 q0 347 -150 347z" />
<glyph unicode="&#xbb;" horiz-adv-x="1029" d="M865 837l5 7q5 -6 48 -37q38 -26 38 -36q0 -12 -30 -29q-36 -20 -33 -16l-6 -7q-26 -1 -110 -94q-61 -69 -109 -149l-39 -74q-28 -49 -50 -60q-72 86 -72 127q0 18 145 133q150 119 162 177l-199 144q-156 118 -156 152q0 44 70 56q53 6 105 11v-4q0 -33 62 -102l54 -60 q28 -43 92 -117q12 -10 24 -12zM525 847l6 8q5 -9 53 -44q42 -32 42 -44q0 -16 -34.5 -34.5t-31.5 -29.5q-36 1 -132 -114q-69 -83 -120 -180l-43 -88q-32 -61 -55 -74q-80 104 -80 153q0 21 161 162q166 145 179 216l-221 174q-172 142 -172 183q0 54 75 68q59 7 118 13 l-1 -9q0 -36 72 -123q88 -108 97 -124q20 -36 39 -62q27 -33 51 -40z" />
<glyph unicode="&#xbf;" horiz-adv-x="676" d="M447 1276q-70 26 -91 50q-27 31 -27 100q0 47 24 91q28 54 70 54q43 0 70 -45q23 -39 24 -84q0 -67 -70 -166zM615 0h-338q-139 77 -185 136q-60 77 -60 219q0 134 55 225q32 52 127.5 143.5t141.5 167.5q32 53 48 156q21 133 30 164q66 -98 67 -152q0 -28 -20 -48 q-2 -156 -76 -293l-135 -209q-71 -117 -71 -223q0 -184 169 -184q59 0 129 65l104 112q39 -162 40 -198q0 -25 -26 -81z" />
<glyph unicode="&#xc0;" horiz-adv-x="1148" d="M702 774q-129 -1 -259 -189q-120 -171 -130 -309q-4 -53 -4 -118.5t4 -142.5q-28 -15 -114 -15q-96 0 -145 15q97 259 163 607q31 164 96 623q7 48 7 138q0 106 -6 223q-39 1 -40 1q-29 0 -92.5 -58t-150.5 -58v67q-1 67 61 107q54 34 125 35l524 2q0 -23 -8 -70.5 t-8 -70.5q0 -275 79 -555q33 9 79 75q26 36 26 110q0 20 -7 58.5t-7 58.5q0 60 78 60q44 0 70 -55q20 -44 20 -95q0 -94 -60 -174q-21 -28 -113 -114q-60 -58 -60 -97q0 -97 193 -710q34 -109 117 -256q87 -155 237 -154q22 0 38 2q117 65 242 65q0 -9 1 -32.5t1 -35.5 q0 -60 -86 -91q-63 -22 -135 -22q-126 0 -255 81q-194 120 -406 272q43 131 43 178q0 5 -3 16zM526 1470h-7l-80 -399q-28 -119 -62 -357q275 196 275 248q-1 115 -126 508zM571 1878q-37 0 -139 65l-67 35q-37 21 -58 50q-60 81 -60 173q0 31 10 62q110 -11 136 -49 l32.5 -68.5t109.5 -137t97 -115.5q-38 -15 -61 -15z" />
<glyph unicode="&#xc1;" horiz-adv-x="1148" d="M702 774q-129 -1 -259 -189q-120 -171 -130 -309q-4 -53 -4 -118.5t4 -142.5q-28 -15 -114 -15q-96 0 -145 15q97 259 163 607q31 164 96 623q7 48 7 138q0 106 -6 223q-39 1 -40 1q-29 0 -92.5 -58t-150.5 -58v67q-1 67 61 107q54 34 125 35l524 2q0 -23 -8 -70.5 t-8 -70.5q0 -275 79 -555q33 9 79 75q26 36 26 110q0 20 -7 58.5t-7 58.5q0 60 78 60q44 0 70 -55q20 -44 20 -95q0 -94 -60 -174q-21 -28 -113 -114q-60 -58 -60 -97q0 -97 193 -710q34 -109 117 -256q87 -155 237 -154q22 0 38 2q117 65 242 65q0 -9 1 -32.5t1 -35.5 q0 -60 -86 -91q-63 -22 -135 -22q-126 0 -255 81q-194 120 -406 272q43 131 43 178q0 5 -3 16zM526 1470h-7l-80 -399q-28 -119 -62 -357q275 196 275 248q-1 115 -126 508zM510 1848q-23 0 -61 15q10 26 97 116t113 138q7 25 29 67q26 38 137 49q10 -32 9 -62 q0 -91 -60 -173q-21 -28 -56 -48l-69 -37q-101 -65 -139 -65z" />
<glyph unicode="&#xc2;" horiz-adv-x="1148" d="M702 774q-129 -1 -259 -189q-120 -171 -130 -309q-4 -53 -4 -118.5t4 -142.5q-28 -15 -114 -15q-96 0 -145 15q97 259 163 607q31 164 96 623q7 48 7 138q0 106 -6 223q-39 1 -40 1q-29 0 -92.5 -58t-150.5 -58v67q-1 67 61 107q54 34 125 35l524 2q0 -23 -8 -70.5 t-8 -70.5q0 -275 79 -555q33 9 79 75q26 36 26 110q0 20 -7 58.5t-7 58.5q0 60 78 60q44 0 70 -55q20 -44 20 -95q0 -94 -60 -174q-21 -28 -113 -114q-60 -58 -60 -97q0 -97 193 -710q34 -109 117 -256q87 -155 237 -154q22 0 38 2q117 65 242 65q0 -9 1 -32.5t1 -35.5 q0 -60 -86 -91q-63 -22 -135 -22q-126 0 -255 81q-194 120 -406 272q43 131 43 178q0 5 -3 16zM526 1470h-7l-80 -399q-28 -119 -62 -357q275 196 275 248q-1 115 -126 508zM822 1853q-29 0 -129 55q-91 52 -121 80q-31 -28 -123 -80q-98 -55 -129 -55q-23 0 -61 15 q11 26 102 117t114 153q6 18 23 52q27 13 70 40q18 0 49 -8q17 -9 35 -45l23 -54q22 -43 112 -138q86 -90 97 -117q-37 -15 -62 -15z" />
<glyph unicode="&#xc3;" horiz-adv-x="1148" d="M702 774q-129 -1 -259 -189q-120 -171 -130 -309q-4 -53 -4 -118.5t4 -142.5q-28 -15 -114 -15q-96 0 -145 15q97 259 163 607q31 164 96 623q7 48 7 138q0 106 -6 223q-39 1 -40 1q-29 0 -92.5 -58t-150.5 -58v67q-1 67 61 107q54 34 125 35l524 2q0 -23 -8 -70.5 t-8 -70.5q0 -275 79 -555q33 9 79 75q26 36 26 110q0 20 -7 58.5t-7 58.5q0 60 78 60q44 0 70 -55q20 -44 20 -95q0 -94 -60 -174q-21 -28 -113 -114q-60 -58 -60 -97q0 -97 193 -710q34 -109 117 -256q87 -155 237 -154q22 0 38 2q117 65 242 65q0 -9 1 -32.5t1 -35.5 q0 -60 -86 -91q-63 -22 -135 -22q-126 0 -255 81q-194 120 -406 272q43 131 43 178q0 5 -3 16zM526 1470h-7l-80 -399q-28 -119 -62 -357q275 196 275 248q-1 115 -126 508z" />
<glyph unicode="&#xc4;" horiz-adv-x="1148" d="M702 774q-129 -1 -259 -189q-120 -171 -130 -309q-4 -53 -4 -118.5t4 -142.5q-28 -15 -114 -15q-96 0 -145 15q97 259 163 607q31 164 96 623q7 48 7 138q0 106 -6 223q-39 1 -40 1q-29 0 -92.5 -58t-150.5 -58v67q-1 67 61 107q54 34 125 35l524 2q0 -23 -8 -70.5 t-8 -70.5q0 -275 79 -555q33 9 79 75q26 36 26 110q0 20 -7 58.5t-7 58.5q0 60 78 60q44 0 70 -55q20 -44 20 -95q0 -94 -60 -174q-21 -28 -113 -114q-60 -58 -60 -97q0 -97 193 -710q34 -109 117 -256q87 -155 237 -154q22 0 38 2q117 65 242 65q0 -9 1 -32.5t1 -35.5 q0 -60 -86 -91q-63 -22 -135 -22q-126 0 -255 81q-194 120 -406 272q43 131 43 178q0 5 -3 16zM526 1470h-7l-80 -399q-28 -119 -62 -357q275 196 275 248q-1 115 -126 508zM691 1855q-87 0 -87 129q0 34 22 75q26 49 60 49q52 0 65 -37q1 -4 10 -78q-6 -15 -8 -52.5 t-13 -54.5q-20 -31 -49 -31zM382 1857l-12 -4q-12 -4 -20 -4q-56 0 -56 122q0 36 22 83q27 55 62 55q50 0 62 -45q2 -42 6 -85q4 -20 -11 -70q-33 -52 -53 -52z" />
<glyph unicode="&#xc5;" horiz-adv-x="1148" d="M702 774q-129 -1 -259 -189q-120 -171 -130 -309q-7 -107 0 -261q-28 -15 -114 -15q-96 0 -145 15q97 259 163 607q31 164 96 623q7 48 7 138q0 106 -6 223q-39 1 -40 1q-29 0 -92.5 -58t-150.5 -58v67q-1 67 61 107q54 34 125 35l524 2q0 -23 -8 -70.5t-8 -70.5 q0 -275 79 -555q33 9 79 75q26 36 26 110q0 20 -7 58.5t-7 58.5q0 60 78 60q44 0 70 -55q20 -44 20 -95q0 -94 -60 -174q-21 -28 -113 -114q-60 -58 -60 -97q0 -97 193 -710q34 -109 117 -256q87 -155 237 -154q22 0 38 2q117 65 242 65q0 -9 1 -32.5t1 -35.5q0 -60 -86 -91 q-63 -22 -135 -22q-126 0 -255 81q-194 120 -406 272q43 131 43 178q0 5 -3 16zM526 1470h-7l-80 -399q-28 -119 -62 -357q275 196 275 248q-1 115 -126 508zM562 1723q-76 0 -130 80q-49 72 -49 151q0 76 38 138q44 72 114 73q77 0 137 -88q53 -80 53 -160 q0 -36 -65.5 -115t-97.5 -79zM540 2053q-29 0 -48 -37q-13 -31 -13 -64q0 -91 70 -91q21 0 45 26.5t24 48.5q0 36 -20 74q-25 43 -58 43z" />
<glyph unicode="&#xc6;" horiz-adv-x="1358" d="M1605 -475q-135 0 -310 48h-4q-39 0 -182 68t-173 100l-159 84l-119 50q-66 32 -108 69l12 25q-10 10 -10 27q0 25 47 53q25 58 23 86l-29 715q-164 -81 -238 -174q-1 -1 -153 -249q-48 -80 -61 -136q-26 -110 -45 -262q-22 -10 -70 -9q-124 0 -190 24q140 250 266 597 q49 137 205 619q32 101 61 359q-34 4 -45 3q-25 0 -92 -52.5t-145 -50.5h-20q4 25 13 75q11 55 71 92q55 33 115 33q11 0 549 -27l-3 -11h675q0 -50 -22 -114q-28 -80 -68 -80q-18 0 -89 39t-103 39q-70 0 -210 1t-210 1l-8 -1q-48 -183 -48 -334q0 29 11 -229 q144 16 427 63l159 65q5 -31 5 -47q0 -38 -21 -111q-23 -85 -49 -86q-81 49 -115 49q-82 0 -204 -22l-202 -37l30 -629q6 -134 17.5 -174.5t73.5 -154.5q123 -98 295 -166q184 -72 330 -72q79 0 180 32.5t136 32.5q55 -150 56 -153q0 -26 -112 -49q-92 -19 -140 -19z M519 1470l-93 -332l-42 -149q-25 -88 -29 -150l117 81q69 40 130 58q-6 47 -12 204q-4 109 -35 219q-21 69 -36 69z" />
<glyph unicode="&#xc7;" horiz-adv-x="1289" d="M1446 -387h-112q-323 0 -639 191q2 -13 2 -29q0 -113 -59 -247q-69 -156 -161 -184v22q65 136 65 223q0 42 -21.5 120.5t-21.5 118.5q0 52 30 92q-210 171 -331 401q-128 244 -128 502q0 368 220 669q187 255 430 275q32 2 80 2q292 1 423 -15q-74 -81 -106 -111 q-64 -59 -128 -83q-110 118 -223 117q-109 0 -184 -63q-174 -150 -269 -371q-52 -119 -52 -339q0 -195 40 -328q65 -223 139 -341t246 -275q133 -120 335 -187l373 -97q70 -18 70 -37q0 -20 -18 -26z" />
<glyph unicode="&#xc8;" horiz-adv-x="1083" d="M1114 -350q-81 0 -186 17q-120 20 -179 50q-307 148 -382 189q-306 162 -306 214q0 16 16 59l21 60q61 217 62 606q0 476 -62 747l-24 90q-15 54 -15 92q0 13 4 32h932q0 -52 -22 -114q-28 -81 -67 -81q-18 0 -90 39.5t-103 39.5h-401q-7 0 -20 -53t-13 -70 q0 -42 3 -121.5t3 -119.5h401q1 0 161 41q4 -25 3 -47q0 -36 -23 -104q-27 -80 -53 -81q-81 61 -158 72q-24 4 -123 4h-55l-159 -1v-895q0 -207 101 -279q326 -231 613 -231q80 0 181 32.5t137 33.5q54 -148 54 -154q0 -26 -112 -48q-92 -19 -139 -19zM664 1943 q-37 0 -139 65l-67 35q-37 21 -58 50q-60 81 -60 173q0 31 10 62q110 -11 136 -49l32.5 -68.5t109.5 -137t97 -115.5q-38 -15 -61 -15z" />
<glyph unicode="&#xc9;" horiz-adv-x="1083" d="M1114 -350q-81 0 -186 17q-120 20 -179 50q-307 148 -382 189q-306 162 -306 214q0 16 16 59l21 60q61 217 62 606q0 476 -62 747l-24 90q-15 54 -15 92q0 13 4 32h932q0 -52 -22 -114q-28 -81 -67 -81q-18 0 -90 39.5t-103 39.5h-401q-7 0 -20 -53t-13 -70 q0 -42 3 -121.5t3 -119.5h401q1 0 161 41q4 -25 3 -47q0 -36 -23 -104q-27 -80 -53 -81q-81 61 -158 72q-24 4 -123 4h-55l-159 -1v-895q0 -207 101 -279q326 -231 613 -231q80 0 181 32.5t137 33.5q54 -148 54 -154q0 -26 -112 -48q-92 -19 -139 -19zM623 1924 q-23 0 -61 15q10 26 97 116t113 138q7 25 29 67q26 38 137 49q10 -32 9 -62q0 -91 -60 -173q-21 -28 -56 -48l-69 -37q-101 -65 -139 -65z" />
<glyph unicode="&#xca;" horiz-adv-x="1083" d="M1114 -350q-81 0 -186 17q-120 20 -179 50q-307 148 -382 189q-306 162 -306 214q0 16 16 59l21 60q61 217 62 606q0 476 -62 747l-24 90q-15 54 -15 92q0 13 4 32h932q0 -52 -22 -114q-28 -81 -67 -81q-18 0 -90 39.5t-103 39.5h-401q-7 0 -20 -53t-13 -70 q0 -42 3 -121.5t3 -119.5h401q1 0 161 41q4 -25 3 -47q0 -36 -23 -104q-27 -80 -53 -81q-81 61 -158 72q-24 4 -123 4h-55l-159 -1v-895q0 -207 101 -279q326 -231 613 -231q80 0 181 32.5t137 33.5q54 -148 54 -154q0 -26 -112 -48q-92 -19 -139 -19zM895 1952 q-29 0 -129 55q-91 52 -121 80q-31 -28 -123 -80q-98 -55 -129 -55q-23 0 -61 15q11 26 102 117t114 153q6 18 23 52q27 13 70 40q18 0 49 -8q17 -9 35 -45l23 -54q22 -43 112 -138q86 -90 97 -117q-37 -15 -62 -15z" />
<glyph unicode="&#xcb;" horiz-adv-x="1083" d="M1114 -350q-81 0 -186 17q-120 20 -179 50q-307 148 -382 189q-306 162 -306 214q0 16 16 59l21 60q61 217 62 606q0 476 -62 747l-24 90q-15 54 -15 92q0 13 4 32h932q0 -52 -22 -114q-28 -81 -67 -81q-18 0 -90 39.5t-103 39.5h-401q-7 0 -20 -53t-13 -70 q0 -42 3 -121.5t3 -119.5h401q1 0 161 41q4 -25 3 -47q0 -36 -23 -104q-27 -80 -53 -81q-81 61 -158 72q-24 4 -123 4h-55l-159 -1v-895q0 -207 101 -279q326 -231 613 -231q80 0 181 32.5t137 33.5q54 -148 54 -154q0 -26 -112 -48q-92 -19 -139 -19zM773 1976 q-87 0 -87 129q0 34 22 75q26 49 60 49q52 0 65 -37q1 -4 10 -78q-6 -15 -8 -52.5t-13 -54.5q-20 -31 -49 -31zM464 1978l-12 -4q-12 -4 -20 -4q-56 0 -56 122q0 36 22 83q27 55 62 55q50 0 62 -45q2 -42 6 -85q4 -20 -11 -70q-33 -52 -53 -52z" />
<glyph unicode="&#xcc;" horiz-adv-x="425" d="M55 0q91 298 91 837q0 414 -12 510q-6 40 -38 171q-27 107 -26 172h260q0 -42 -16 -102q-25 -93 -26 -101q-28 -147 -28 -443q0 -102 1.5 -306.5t1.5 -308.5q0 -227 79 -429h-287zM253 1827q-37 0 -139 65l-67 35q-37 21 -58 50q-60 81 -60 173q0 31 10 62 q110 -11 136 -49l32.5 -68.5t109.5 -137t97 -115.5q-38 -15 -61 -15z" />
<glyph unicode="&#xcd;" horiz-adv-x="425" d="M55 0q91 298 91 837q0 414 -12 510q-6 40 -38 171q-27 107 -26 172h260q0 -42 -16 -102q-25 -93 -26 -101q-28 -147 -28 -443q0 -102 1.5 -306.5t1.5 -308.5q0 -227 79 -429h-287zM230 1803q-23 0 -61 15q10 26 97 116t113 138q7 25 29 67q26 38 137 49q10 -32 9 -62 q0 -91 -60 -173q-21 -28 -56 -48l-69 -37q-101 -65 -139 -65z" />
<glyph unicode="&#xce;" horiz-adv-x="425" d="M55 0q91 298 91 837q0 414 -12 510q-6 40 -38 171q-27 107 -26 172h260q0 -42 -16 -102q-25 -93 -26 -101q-28 -147 -28 -443q0 -102 1.5 -306.5t1.5 -308.5q0 -227 79 -429h-287zM468 1848q-29 0 -129 55q-91 52 -121 80q-31 -28 -123 -80q-98 -55 -129 -55 q-23 0 -61 15q11 26 102 117t114 153q6 18 23 52q27 13 70 40q18 0 49 -8q17 -9 35 -45l23 -54q22 -43 112 -138q86 -90 97 -117q-37 -15 -62 -15z" />
<glyph unicode="&#xcf;" horiz-adv-x="425" d="M55 0q91 298 91 837q0 414 -12 510q-6 40 -38 171q-27 107 -26 172h260q0 -42 -16 -102q-25 -93 -26 -101q-28 -147 -28 -443q0 -102 1.5 -306.5t1.5 -308.5q0 -227 79 -429h-287zM356 1847q-87 0 -87 129q0 34 22 75q26 49 60 49q52 0 65 -37q1 -4 10 -78 q-6 -15 -8 -52.5t-13 -54.5q-20 -31 -49 -31zM47 1849l-12 -4q-12 -4 -20 -4q-56 0 -56 122q0 36 22 83q27 55 62 55q50 0 62 -45q2 -42 6 -85q4 -20 -11 -70q-33 -52 -53 -52z" />
<glyph unicode="&#xd0;" horiz-adv-x="1071" d="M-239 -156q-76 0 -76 60q0 65 95 84l283 38q169 27 270 88q252 152 387 435q128 263 128 574q0 306 -65 469q-139 346 -373 346q-137 0 -134 -645l1 -109h48q29 -1 48 -1q39 0 56 26h51q-7 -29 -38 -98q-33 -75 -49 -91q-43 17 -112 23q18 -399 112 -760l-286 -1 q0 21 24 178q29 198 31 584q-23 -5 -74 -32q-45 -23 -75 -24q-1 49 23 115l40 112l44 -31h42q0 23 1 106q1 65 1 105q0 221 -41 365q-21 59 -54 179q141 76 291 76q350 0 519 -290q137 -233 137 -608q0 -153 -12 -232q-16 -102 -69 -224q-121 -288 -286 -451 q-190 -190 -467 -249q-158 -33 -348 -102q-40 -15 -73 -15z" />
<glyph unicode="&#xd1;" horiz-adv-x="992" d="M683 20q-4 255 -23 387q-32 222 -123 364l-136 240q-48 77 -94 219q-56 171 -82 224v-1210q0 -144 39 -335q4 -17 39 -150q25 -91 27 -152h-253v1593q0 -2 -24 129q-44 234 -44 350q0 21 122 71l152 57h101q-44 -98 -44 -190q0 -87 53 -248q47 -144 97 -236l86 -176 q53 -103 103 -167q11 216 11 576q0 140 -35 278l-68 265h273q-10 -58 -27 -174q-10 -83 -10 -215q0 -178 10 -964q2 -174 52 -335q15 -45 28 -92q16 -54 16 -96q-101 -13 -246 -13zM582 2025q-29 0 -84.5 72.5t-81.5 72.5q-20 0 -82 -60q-49 -47 -80 -114q-28 77 -28 134 q0 59 64.5 125t123.5 66q38 0 92 -63.5t85 -63.5q26 0 67 71l52 97q38 -107 38 -142q0 -47 -24 -77q-90 -118 -142 -118z" />
<glyph unicode="&#xd2;" horiz-adv-x="1004" d="M504 -11q-228 0 -364 342q-107 268 -107 540q0 270 98 517q129 320 355 320q227 0 361 -361q102 -276 102 -553q0 -238 -108 -492q-135 -313 -337 -313zM466 1605q-129 0 -190 -290q-40 -190 -40 -396q0 -263 40 -471q65 -345 220 -345q145 0 222 293q29 114 29 351 q0 858 -281 858zM598 1827q-37 0 -139 65l-67 35q-37 21 -58 50q-60 81 -60 173q0 31 10 62q110 -11 136 -49l32.5 -68.5t109.5 -137t97 -115.5q-38 -15 -61 -15z" />
<glyph unicode="&#xd3;" horiz-adv-x="1004" d="M504 -11q-228 0 -364 342q-107 268 -107 540q0 270 98 517q129 320 355 320q227 0 361 -361q102 -276 102 -553q0 -238 -108 -492q-135 -313 -337 -313zM466 1605q-129 0 -190 -290q-40 -190 -40 -396q0 -263 40 -471q65 -345 220 -345q145 0 222 293q29 114 29 351 q0 858 -281 858zM470 1810q-23 0 -61 15q10 26 97 116t113 138q7 25 29 67q26 38 137 49q10 -32 9 -62q0 -91 -60 -173q-21 -28 -56 -48l-69 -37q-101 -65 -139 -65z" />
<glyph unicode="&#xd4;" horiz-adv-x="1004" d="M504 -11q-228 0 -364 342q-107 268 -107 540q0 270 98 517q129 320 355 320q227 0 361 -361q102 -276 102 -553q0 -238 -108 -492q-135 -313 -337 -313zM466 1605q-129 0 -190 -290q-40 -190 -40 -396q0 -263 40 -471q65 -345 220 -345q145 0 222 293q29 114 29 351 q0 858 -281 858zM731 1814q-29 0 -129 55q-91 52 -121 80q-31 -28 -123 -80q-98 -55 -129 -55q-23 0 -61 15q11 26 102 117t114 153q6 18 23 52q27 13 70 40q18 0 49 -8q17 -9 35 -45l23 -54q22 -43 112 -138q86 -90 97 -117q-37 -15 -62 -15z" />
<glyph unicode="&#xd5;" horiz-adv-x="1004" d="M504 -11q-228 0 -364 342q-107 268 -107 540q0 270 98 517q129 320 355 320q227 0 361 -361q102 -276 102 -553q0 -238 -108 -492q-135 -313 -337 -313zM466 1605q-129 0 -190 -290q-40 -190 -40 -396q0 -263 40 -471q65 -345 220 -345q145 0 222 293q29 114 29 351 q0 858 -281 858zM575 1823q-29 0 -84.5 72.5t-81.5 72.5q-20 0 -82 -60q-49 -47 -80 -114q-28 77 -28 134q0 59 64.5 125t123.5 66q38 0 92 -63.5t85 -63.5q26 0 67 71l52 97q38 -107 38 -142q0 -47 -24 -77q-90 -118 -142 -118z" />
<glyph unicode="&#xd6;" horiz-adv-x="1004" d="M504 -11q-228 0 -364 342q-107 268 -107 540q0 270 98 517q129 320 355 320q227 0 361 -361q102 -276 102 -553q0 -238 -108 -492q-135 -313 -337 -313zM466 1605q-129 0 -190 -290q-40 -190 -40 -396q0 -263 40 -471q65 -345 220 -345q145 0 222 293q29 114 29 351 q0 858 -281 858zM664 1800q-87 0 -87 129q0 34 22 75q26 49 60 49q52 0 65 -37q1 -4 10 -78q-6 -15 -8 -52.5t-13 -54.5q-20 -31 -49 -31zM355 1802l-12 -4q-12 -4 -20 -4q-56 0 -56 122q0 36 22 83q27 55 62 55q50 0 62 -45q2 -42 6 -85q4 -20 -11 -70q-33 -52 -53 -52z " />
<glyph unicode="&#xd7;" horiz-adv-x="925" d="M529 670l167 -173q119 -129 140 -179l-221 7q-1 22 -25 54q-27 34 -30 53q-23 106 -100 141q-52 -27 -102 -105l-73 -132q-20 -33 -80 -33q-27 0 -81.5 7.5t-81.5 8.5q20 36 186 190q151 141 151 171q0 18 -299 307l238 -4q4 -32 29 -66q36 -48 42 -62q18 -38 27 -50 q18 -27 43 -37q56 28 101 124q6 13 79 99l209 -4q-55 -75 -152 -165z" />
<glyph unicode="&#xd8;" horiz-adv-x="1004" d="M502 -129q-107 0 -194 77q-6 -23 -6 -42q0 -37 -40 -81.5t-77 -44.5q-54 0 -54 64q0 20 68 243q-77 135 -124 323q-44 180 -44 343q0 270 98 517q129 320 354 320q75 0 132 -34q7 50 44 112q44 71 86 71q50 0 50 -81q0 -48 -21 -116l-38 -111q103 -141 160 -361 q50 -196 50 -394q0 -239 -108 -492q-134 -313 -336 -313zM464 1487q-129 0 -190 -289q-40 -190 -41 -397q0 -244 39 -459l315 1090q-52 55 -123 55zM682 1245l-334 -1153q58 -107 145 -107q141 0 222 294q29 110 30 350q0 411 -63 616z" />
<glyph unicode="&#xd9;" d="M869 1443q0 -205 13.5 -613.5t13.5 -612.5q-72 -215 -398 -215q-337 0 -337 294v799q0 221 -91 516q20 26 128 62q102 33 144 34q-69 -238 -68 -351l1 -999q0 -252 250 -251q82 0 152 30q91 40 91 112l1 366q0 577 -67 912q-1 1 -25 90q-13 56 -13 91v12h258l-32 -142 q-21 -98 -21 -134zM556 1792q-37 0 -139 65l-67 35q-37 21 -58 50q-60 81 -60 173q0 31 10 62q110 -11 136 -49l32.5 -68.5t109.5 -137t97 -115.5q-38 -15 -61 -15z" />
<glyph unicode="&#xda;" d="M869 1443q0 -205 13.5 -613.5t13.5 -612.5q-72 -215 -398 -215q-337 0 -337 294v799q0 221 -91 516q20 26 128 62q102 33 144 34q-69 -238 -68 -351l1 -999q0 -252 250 -251q82 0 152 30q91 40 91 112l1 366q0 577 -67 912q-1 1 -25 90q-13 56 -13 91v12h258l-32 -142 q-21 -98 -21 -134zM461 1835q-23 0 -61 15q10 26 97 116t113 138q7 25 29 67q26 38 137 49q10 -32 9 -62q0 -91 -60 -173q-21 -28 -56 -48l-69 -37q-101 -65 -139 -65z" />
<glyph unicode="&#xdb;" d="M869 1443q0 -205 13.5 -613.5t13.5 -612.5q-72 -215 -398 -215q-337 0 -337 294v799q0 221 -91 516q20 26 128 62q102 33 144 34q-69 -238 -68 -351l1 -999q0 -252 250 -251q82 0 152 30q91 40 91 112l1 366q0 577 -67 912q-1 1 -25 90q-13 56 -13 91v12h258l-32 -142 q-21 -98 -21 -134zM751 1797q-29 0 -129 55q-91 52 -121 80q-31 -28 -123 -80q-98 -55 -129 -55q-23 0 -61 15q11 26 102 117t114 153q6 18 23 52q27 13 70 40q18 0 49 -8q17 -9 35 -45l23 -54q22 -43 112 -138q86 -90 97 -117q-37 -15 -62 -15z" />
<glyph unicode="&#xdc;" d="M869 1443q0 -205 13.5 -613.5t13.5 -612.5q-72 -215 -398 -215q-337 0 -337 294v799q0 221 -91 516q20 26 128 62q102 33 144 34q-69 -238 -68 -351l1 -999q0 -252 250 -251q82 0 152 30q91 40 91 112l1 366q0 577 -67 912q-1 1 -25 90q-13 56 -13 91v12h258l-32 -142 q-21 -98 -21 -134zM665 1890q-87 0 -87 129q0 34 22 75q26 49 60 49q52 0 65 -37q1 -4 10 -78q-6 -15 -8 -52.5t-13 -54.5q-20 -31 -49 -31zM356 1892l-12 -4q-12 -4 -20 -4q-56 0 -56 122q0 36 22 83q27 55 62 55q50 0 62 -45q2 -42 6 -85q4 -20 -11 -70q-33 -52 -53 -52z " />
<glyph unicode="&#xdd;" horiz-adv-x="851" d="M1574 1561q-16 0 -117.5 71.5t-192.5 71.5q-88 0 -177 -77q-263 -227 -424 -606q-34 -81 -35 -376q0 -268 25 -387q36 -184 157 -356l-37 -20q-131 108 -356 156l66 147v708q-82 164 -218 379l-237 366q229 130 237 130l5 -1q26 -241 190 -558q72 -140 89 -140 q10 0 65 102q99 187 115 319q2 59 28 171q250 77 258 80q157 43 264 43q90 0 208 -42q147 -52 147 -120q0 -61 -60 -61zM595 1781q-23 0 -61 15q10 26 97 116t113 138q7 25 29 67q26 38 137 49q10 -32 9 -62q0 -91 -60 -173q-21 -28 -56 -48l-69 -37q-101 -65 -139 -65z" />
<glyph unicode="&#xde;" horiz-adv-x="1045" d="M434 374v-97q-1 -158 30 -268q12 -42 91 -121q72 -72 72 -103q0 -47 -61 -46q-16 0 -30 7q-174 102 -286 139v19q0 45 31 138.5t31 142.5q0 22 -6 118q-86 -23 -105 -72l-32 -130q-27 -94 -70 -95q-64 0 -63 108q0 85 38 123l222 219q10 11 10 83q0 250 -34 554 q-38 356 -100 539q153 99 250 99q10 0 15 -36q-1 7 -1 -192q0 -140 29 -140q20 0 59.5 4t60.5 4q216 0 308 -56q123 -74 123 -274q0 -175 -101 -297q-65 -79 -229 -184q-183 -119 -252 -186zM577 1250q-60 0 -128 -20l-2 -697q21 5 56 29q155 108 225 200q96 125 95 280 q0 129 -61 173q-50 35 -185 35z" />
<glyph unicode="&#xdf;" horiz-adv-x="871" d="M406 -10h-23q1 34 31 212q21 -2 61 -46t94 -44q130 0 130 254q0 69 -90 141l-170 129q-91 87 -91 190q0 75 124 202t124 216q0 117 -27 172q-39 81 -144 81q-98 0 -160 -315q-45 -233 -45 -406v-226q0 -425 38 -562l-210 -10q25 119 26 201l20 806q1 38 -79 118l84 44 l52 213q38 135 93 203q74 91 189 91q168 0 232 -120q47 -88 47 -279q0 -85 -63 -178q-17 -26 -115 -143q-63 -75 -63 -113q0 -85 96 -151l175 -118q96 -83 96 -211q0 -292 -258 -329q-45 -2 -135 -14q-33 -8 -39 -8z" />
<glyph unicode="&#xe0;" horiz-adv-x="708" d="M468 0q58 191 57 384q0 171 -80 171q-101 0 -184 -153q-38 -70 -38 -179q0 -182 124 -273q61 -45 285 -125q-64 -6 -106 -7q-216 0 -336 97q-133 106 -132 317q0 175 117 278q36 32 218 129q118 61 117 139q0 86 -92 86q-31 0 -101 -54t-176 -54q37 110 63 143 q45 58 142 58q148 0 215 -51q76 -59 76 -204q0 -52 -3 -155t-3 -154q0 -139 18.5 -242.5t19.5 -150.5h-201zM460 1171q-37 0 -139 65l-67 35q-37 21 -58 50q-60 81 -60 173q0 31 10 62q110 -11 136 -49l32.5 -68.5t109.5 -137t97 -115.5q-38 -15 -61 -15z" />
<glyph unicode="&#xe1;" horiz-adv-x="708" d="M468 0q58 191 57 384q0 171 -80 171q-101 0 -184 -153q-38 -70 -38 -179q0 -182 124 -273q61 -45 285 -125q-64 -6 -106 -7q-216 0 -336 97q-133 106 -132 317q0 175 117 278q36 32 218 129q118 61 117 139q0 86 -92 86q-31 0 -101 -54t-176 -54q37 110 63 143 q45 58 142 58q148 0 215 -51q76 -59 76 -204q0 -52 -3 -155t-3 -154q0 -139 18.5 -242.5t19.5 -150.5h-201zM390 1157q-23 0 -61 15q10 26 97 116t113 138q7 25 29 67q26 38 137 49q10 -32 9 -62q0 -91 -60 -173q-21 -28 -56 -48l-69 -37q-101 -65 -139 -65z" />
<glyph unicode="&#xe2;" horiz-adv-x="708" d="M468 0q58 191 57 384q0 171 -80 171q-101 0 -184 -153q-38 -70 -38 -179q0 -182 124 -273q61 -45 285 -125q-64 -6 -106 -7q-216 0 -336 97q-133 106 -132 317q0 175 117 278q36 32 218 129q118 61 117 139q0 86 -92 86q-31 0 -101 -54t-176 -54q37 110 63 143 q45 58 142 58q148 0 215 -51q76 -59 76 -204q0 -52 -3 -155t-3 -154q0 -139 18.5 -242.5t19.5 -150.5h-201zM594 1128q-26 0 -113 52q-80 48 -107 75q-27 -27 -106 -75q-87 -53 -115 -52q-21 0 -54 13q10 25 90 112t101 145q5 17 19 49q25 13 63 38q15 -1 43 -8 q15 -9 29 -43l21 -51q20 -40 98 -130q75 -85 85 -112q-32 -13 -54 -13z" />
<glyph unicode="&#xe3;" horiz-adv-x="708" d="M468 0q58 191 57 384q0 171 -80 171q-101 0 -184 -153q-38 -70 -38 -179q0 -182 124 -273q61 -45 285 -125q-64 -6 -106 -7q-216 0 -336 97q-133 106 -132 317q0 175 117 278q36 32 218 129q118 61 117 139q0 86 -92 86q-31 0 -101 -54t-176 -54q37 110 63 143 q45 58 142 58q148 0 215 -51q76 -59 76 -204q0 -52 -3 -155t-3 -154q0 -139 18.5 -242.5t19.5 -150.5h-201zM487 1189q-29 0 -84.5 72.5t-81.5 72.5q-20 0 -82 -60q-49 -47 -80 -114q-28 77 -28 134q0 59 64.5 125t123.5 66q38 0 92 -63.5t85 -63.5q26 0 67 71l52 97 q38 -107 38 -142q0 -47 -24 -77q-90 -118 -142 -118z" />
<glyph unicode="&#xe4;" horiz-adv-x="708" d="M468 0q58 191 57 384q0 171 -80 171q-101 0 -184 -153q-38 -70 -38 -179q0 -182 124 -273q61 -45 285 -125q-64 -6 -106 -7q-216 0 -336 97q-133 106 -132 317q0 175 117 278q36 32 218 129q118 61 117 139q0 86 -92 86q-31 0 -101 -54t-176 -54q37 110 63 143 q45 58 142 58q148 0 215 -51q76 -59 76 -204q0 -52 -3 -155t-3 -154q0 -139 18.5 -242.5t19.5 -150.5h-201zM557 1127q-87 0 -87 129q0 34 22 75q26 49 60 49q52 0 65 -37q1 -4 10 -78q-6 -15 -8 -52.5t-13 -54.5q-20 -31 -49 -31zM248 1129l-12 -4q-12 -4 -20 -4 q-56 0 -56 122q0 36 22 83q27 55 62 55q50 0 62 -45q2 -42 6 -85q4 -20 -11 -70q-33 -52 -53 -52z" />
<glyph unicode="&#xe5;" horiz-adv-x="708" d="M468 0q58 191 57 384q0 171 -80 171q-101 0 -184 -153q-38 -70 -38 -179q0 -182 124 -273q61 -45 285 -125q-64 -6 -106 -7q-216 0 -336 97q-133 106 -132 317q0 175 117 278q36 32 218 129q118 61 117 139q0 86 -92 86q-31 0 -101 -54t-176 -54q37 110 63 143 q45 58 142 58q148 0 215 -51q76 -59 76 -204q0 -52 -3 -155t-3 -154q0 -139 18.5 -242.5t19.5 -150.5h-201zM427 1020q-87 0 -139 104q-40 83 -40 182q0 83 37 164q45 101 117 101q82 0 139 -111q47 -93 47 -184q0 -39 -63 -146q-65 -110 -98 -110zM405 1433q-31 0 -49 -50 q-13 -38 -14 -76q0 -117 70 -117q21 0 45 39.5t24 62.5q0 40 -18 85q-24 56 -58 56z" />
<glyph unicode="&#xe6;" horiz-adv-x="1071" d="M999 688q0 -91 -48 -90h-270q-37 0 -59 -35v-44q0 -113 31 -204q40 -120 121 -158q42 -21 198 -24q0 -48 -90 -104q-83 -50 -135 -50q-27 0 -124 104q9 -27 19 -83h-201q58 191 57 380q0 174 -81 175q-99 0 -183 -153q-38 -70 -38 -179q0 -162 118 -268q60 -55 260 -160 q-64 -6 -105 -6q-101 0 -243 83q-195 114 -195 360q0 175 117 278q36 32 218 129q118 61 117 139q0 106 -95 105q-38 0 -112.5 -62.5t-142.5 -62.5q0 16 -2 50.5t-2 52.5q0 52 78 86q64 29 126 30q209 0 260 -155q87 113 191 113q120 0 171 -65q44 -58 44 -182zM794 834 q-54 0 -88.5 -34t-36.5 -88l167 -2q10 0 9 9v17q1 98 -51 98z" />
<glyph unicode="&#xe7;" horiz-adv-x="566" d="M336 2q-2 -5 -23 -20.5t-21 -19.5q21 -65 21 -85q0 -82 -58 -194q-64 -121 -135 -141v22q65 136 65 224q0 42 -21.5 120.5t-21.5 118.5q0 12 20 20l29 9q-25 13 -68 48q-117 115 -117 377q0 236 104 367q97 123 204 123q70 0 126 -51.5t56 -120.5q0 -104 -113 -104 q-70 0 -70 65q0 31 10 47q15 23 17 37l-4 13q-20 10 -43 9q-29 0 -83 -77q-65 -93 -65 -260q0 -139 27 -199q71 -164 201 -164q25 0 74.5 6t74.5 6q-7 -42 -74.5 -103.5t-111.5 -72.5z" />
<glyph unicode="&#xe8;" horiz-adv-x="593" d="M562 709q0 -91 -48 -91h-270q-38 0 -50 -22q-1 -18 -2.5 -57.5t-1.5 -58.5q0 -50 9 -87q38 -151 111 -198q60 -38 225 -42q-1 -48 -91 -103q-82 -50 -135 -50q-67 0 -147 90q-104 118 -104 379q0 223 65 327q98 160 224 160q120 0 171 -65q44 -58 44 -182zM348 853 q-53 0 -89.5 -34t-38.5 -86h153q33 0 33 45q0 75 -58 75zM426 1159q-37 0 -139 65l-67 35q-37 21 -58 50q-60 81 -60 173q0 31 10 62q110 -11 136 -49l32.5 -68.5t109.5 -137t97 -115.5q-38 -15 -61 -15z" />
<glyph unicode="&#xe9;" horiz-adv-x="593" d="M562 709q0 -91 -48 -91h-270q-38 0 -50 -22q-1 -18 -2.5 -57.5t-1.5 -58.5q0 -50 9 -87q38 -151 111 -198q60 -38 225 -42q-1 -48 -91 -103q-82 -50 -135 -50q-67 0 -147 90q-104 118 -104 379q0 223 65 327q98 160 224 160q120 0 171 -65q44 -58 44 -182zM348 853 q-53 0 -89.5 -34t-38.5 -86h153q33 0 33 45q0 75 -58 75zM309 1089q-23 0 -61 15q10 26 97 116t113 138q7 25 29 67q26 38 137 49q10 -32 9 -62q0 -91 -60 -173q-21 -28 -56 -48l-69 -37q-101 -65 -139 -65z" />
<glyph unicode="&#xea;" horiz-adv-x="593" d="M562 709q0 -91 -48 -91h-270q-38 0 -50 -22q-1 -18 -2.5 -57.5t-1.5 -58.5q0 -50 9 -87q38 -151 111 -198q60 -38 225 -42q-1 -48 -91 -103q-82 -50 -135 -50q-67 0 -147 90q-104 118 -104 379q0 223 65 327q98 160 224 160q120 0 171 -65q44 -58 44 -182zM348 853 q-53 0 -89.5 -34t-38.5 -86h153q33 0 33 45q0 75 -58 75zM497 1134q-22 0 -98 44q-70 40 -92 63q-23 -22 -93 -63q-75 -44 -99 -44q-18 0 -46 11q7 21 76.5 94t87.5 121q4 15 17 41q21 11 54 32q12 -1 37 -6q13 -7 26 -35q10 -22 18 -45q16 -33 83.5 -106t75.5 -95 q-29 -12 -47 -12z" />
<glyph unicode="&#xeb;" horiz-adv-x="593" d="M562 709q0 -91 -48 -91h-270q-38 0 -50 -22q-1 -18 -2.5 -57.5t-1.5 -58.5q0 -50 9 -87q38 -151 111 -198q60 -38 225 -42q-1 -48 -91 -103q-82 -50 -135 -50q-67 0 -147 90q-104 118 -104 379q0 223 65 327q98 160 224 160q120 0 171 -65q44 -58 44 -182zM348 853 q-53 0 -89.5 -34t-38.5 -86h153q33 0 33 45q0 75 -58 75zM501 1146q-87 0 -87 129q0 34 22 75q26 49 60 49q52 0 65 -37q1 -4 10 -78q-6 -15 -8 -52.5t-13 -54.5q-20 -31 -49 -31zM192 1148l-12 -4q-12 -4 -20 -4q-56 0 -56 122q0 36 22 83q27 55 62 55q50 0 62 -45 q2 -42 6 -85q4 -20 -11 -70q-33 -52 -53 -52z" />
<glyph unicode="&#xec;" horiz-adv-x="321" d="M64 0q0 39 12 101q17 79 20 98q12 93 12 251q0 283 -65 478h209q0 -50 -22.5 -149.5t-22.5 -151.5v-242q0 -65 23.5 -193t23.5 -192h-190zM183 1200q-37 0 -139 65l-67 35q-37 21 -58 50q-60 81 -60 173q0 31 10 62q110 -11 136 -49l32.5 -68.5t109.5 -137t97 -115.5 q-38 -15 -61 -15z" />
<glyph unicode="&#xed;" horiz-adv-x="321" d="M64 0q0 39 12 101q17 79 20 98q12 93 12 251q0 283 -65 478h209q0 -50 -22.5 -149.5t-22.5 -151.5v-242q0 -65 23.5 -193t23.5 -192h-190zM160 1101q-23 0 -61 15q10 26 97 116t113 138q7 25 29 67q26 38 137 49q10 -32 9 -62q0 -91 -60 -173q-21 -28 -56 -48l-69 -37 q-101 -65 -139 -65z" />
<glyph unicode="&#xee;" horiz-adv-x="321" d="M64 0q0 39 12 101q17 79 20 98q12 93 12 251q0 283 -65 478h209q0 -50 -22.5 -149.5t-22.5 -151.5v-242q0 -65 23.5 -193t23.5 -192h-190zM340 1151q-20 0 -82 41t-81 62q-20 -21 -80 -61q-64 -42 -84 -42q-15 0 -39 11q6 20 65.5 90.5t74.5 118.5q4 13 15 39 q18 11 45 31q12 0 32 -5q6 -4 38 -78q13 -33 73 -105q55 -69 62 -91q-24 -11 -39 -11z" />
<glyph unicode="&#xef;" horiz-adv-x="321" d="M64 0q0 39 12 101q17 79 20 98q12 93 12 251q0 283 -65 478h209q0 -50 -22.5 -149.5t-22.5 -151.5v-242q0 -65 23.5 -193t23.5 -192h-190zM303 1154q-87 0 -87 129q0 34 22 75q26 49 60 49q52 0 65 -37q1 -4 10 -78q-6 -15 -8 -52.5t-13 -54.5q-20 -31 -49 -31zM-6 1156 l-12 -4q-12 -4 -20 -4q-56 0 -56 122q0 36 22 83q27 55 62 55q50 0 62 -45q2 -42 6 -85q4 -20 -11 -70q-33 -52 -53 -52z" />
<glyph unicode="&#xf0;" horiz-adv-x="839" d="M481 32l15 -15l-32 8q-45 -25 -92 -25q-113 0 -193 93q-52 60 -108 193q-26 59 -26 177q0 209 143 385q90 109 183 109q151 0 251 -172q4 69 4 146q0 162 -116 440l-85 -47q-1 1 -5 1q-45 -22 -54 -22q-2 1 -5 5l-31 134q43 26 122 54q-94 169 -205 216q1 5 1 13 q0 18 -7 54t-7 54q0 34 13 35q44 0 162 -146q91 -112 138 -192l59 19q44 16 46 28l58 42q1 -9 16 -75q11 -47 11 -78q0 -9 -2 -18q-38 2 -123 -33q167 -321 167 -573q0 -226 -115 -548q-81 -228 -183 -262zM369 852q-9 0 -18 -2q-79 -45 -101 -163q-34 -187 -34 -227 q0 -45 34 -221q29 -151 111 -151q36 0 57 20q44 42 92 193q45 141 46 212q0 108 -42 210q-53 129 -145 129z" />
<glyph unicode="&#xf1;" horiz-adv-x="747" d="M266 -209q-11 0 -13 9l5 18q180 109 245 267q53 126 53 362q0 156 -44 265q-60 152 -192 152q-85 0 -84 -138v-726h-164q0 43 10 113l16 112q10 106 10 230q0 72 -10.5 219t-10.5 219q0 16 3 35l268 11h7q84 0 171 -64q185 -134 186 -433q0 -290 -209 -530 q-71 -82 -223 -117q-17 -4 -24 -4zM469 1181q-29 0 -84.5 72.5t-81.5 72.5q-20 0 -82 -60q-49 -47 -80 -114q-28 77 -28 134q0 59 64.5 125t123.5 66q38 0 92 -63.5t85 -63.5q26 0 67 71l52 97q38 -107 38 -142q0 -47 -24 -77q-90 -118 -142 -118z" />
<glyph unicode="&#xf2;" horiz-adv-x="722" d="M372 -11q-185 0 -301 293q-26 64 -26 181q0 152 90 316q102 190 236 190q139 0 235 -170q85 -147 85 -301q0 -243 -118 -389q-97 -120 -201 -120zM369 861q-9 0 -18 -2q-79 -45 -101 -167q-34 -187 -34 -232q0 -48 34 -227q29 -155 111 -154q93 0 134 179q25 110 24 256 q0 347 -150 347zM422 1138q-37 0 -139 65l-67 35q-37 21 -58 50q-60 81 -60 173q0 31 10 62q110 -11 136 -49l32.5 -68.5t109.5 -137t97 -115.5q-38 -15 -61 -15z" />
<glyph unicode="&#xf3;" horiz-adv-x="722" d="M372 -11q-185 0 -301 293q-26 64 -26 181q0 152 90 316q102 190 236 190q139 0 235 -170q85 -147 85 -301q0 -243 -118 -389q-97 -120 -201 -120zM369 861q-9 0 -18 -2q-79 -45 -101 -167q-34 -187 -34 -232q0 -48 34 -227q29 -155 111 -154q93 0 134 179q25 110 24 256 q0 347 -150 347zM379 1101q-23 0 -61 15q10 26 97 116t113 138q7 25 29 67q26 38 137 49q10 -32 9 -62q0 -91 -60 -173q-21 -28 -56 -48l-69 -37q-101 -65 -139 -65z" />
<glyph unicode="&#xf4;" horiz-adv-x="722" d="M372 -11q-185 0 -301 293q-26 64 -26 181q0 152 90 316q102 190 236 190q139 0 235 -170q85 -147 85 -301q0 -243 -118 -389q-97 -120 -201 -120zM369 861q-9 0 -18 -2q-79 -45 -101 -167q-34 -187 -34 -232q0 -48 34 -227q29 -155 111 -154q93 0 134 179q25 110 24 256 q0 347 -150 347zM563 1146q-25 0 -107 49q-76 45 -100 70q-26 -25 -102 -70q-81 -49 -107 -49q-20 0 -50 12q9 23 84 105t94 136q5 17 19 47q22 12 59 35q13 -1 41 -7q15 -7 28 -40l20 -49q17 -38 92 -121q71 -80 81 -106q-31 -12 -52 -12z" />
<glyph unicode="&#xf5;" horiz-adv-x="722" d="M372 -11q-185 0 -301 293q-26 64 -26 181q0 152 90 316q102 190 236 190q139 0 235 -170q85 -147 85 -301q0 -243 -118 -389q-97 -120 -201 -120zM369 861q-9 0 -18 -2q-79 -45 -101 -167q-34 -187 -34 -232q0 -48 34 -227q29 -155 111 -154q93 0 134 179q25 110 24 256 q0 347 -150 347zM461 1185q-29 0 -84.5 72.5t-81.5 72.5q-20 0 -82 -60q-49 -47 -80 -114q-28 77 -28 134q0 59 64.5 125t123.5 66q38 0 92 -63.5t85 -63.5q26 0 67 71l52 97q38 -107 38 -142q0 -47 -24 -77q-90 -118 -142 -118z" />
<glyph unicode="&#xf6;" horiz-adv-x="763" d="M412 -11q-185 0 -301 293q-26 64 -26 181q0 152 90 316q102 190 236 190q139 0 235 -170q85 -147 85 -301q0 -243 -118 -389q-97 -120 -201 -120zM409 861q-9 0 -18 -2q-79 -45 -101 -167q-34 -187 -34 -232q0 -48 34 -227q29 -155 111 -154q93 0 134 179q25 110 24 256 q0 347 -150 347zM567 1105q-87 0 -87 129q0 34 22 75q26 49 60 49q52 0 65 -37q1 -4 10 -78q-6 -15 -8 -52.5t-13 -54.5q-20 -31 -49 -31zM258 1107l-12 -4q-12 -4 -20 -4q-56 0 -56 122q0 36 22 83q27 55 62 55q50 0 62 -45q2 -42 6 -85q4 -20 -11 -70q-33 -52 -53 -52z " />
<glyph unicode="&#xf7;" horiz-adv-x="601" d="M271 703q-80 0 -80 95q0 206 89 206q45 0 77 -69q27 -58 27 -109q0 -123 -113 -123zM464 442q-72 13 -210 13q-37 0 -107 -14t-105 -14v16l88 137l45 -13h245q47 0 84 24h52v-18q0 -13 -39.5 -69t-52.5 -62zM292 21q-90 0 -90 227q0 49 3 78q27 5 48 5q131 0 131 -160 q0 -150 -92 -150z" />
<glyph unicode="&#xf8;" horiz-adv-x="722" d="M344 0q-42 0 -81 15q-26 -102 -29 -109q-27 -70 -73 -70q-39 0 -40 44q0 16 54 190q-157 144 -157 393q0 207 143 385q88 109 183 109q43 0 82 -17l33 124q31 87 76 87q36 0 36 -56q0 -39 -22 -110l-36 -109q151 -156 151 -378q0 -237 -119 -381q-94 -117 -201 -117z M342 852q-10 0 -18 -2q-80 -47 -101 -163q-34 -196 -34 -227q0 -75 34 -224l173 601q-25 15 -54 15zM469 724l-181 -622q20 -13 46 -14q93 0 134 175q25 108 24 250q0 129 -23 211z" />
<glyph unicode="&#xf9;" horiz-adv-x="695" d="M666 0h-291q-146 0 -236 144q-79 125 -79 279q0 124 38 216q0 1 119 273q71 163 104 278q64 -48 79 -60q55 -45 60 -70q-126 -151 -177 -314q-45 -146 -45 -358q0 -121 37 -204q50 -110 156 -110q120 0 120 339v7l-1 133q0 61 -20.5 185.5t-20.5 189.5h211 q-55 -190 -55 -364z" />
<glyph unicode="&#xfa;" horiz-adv-x="695" d="M666 0h-291q-146 0 -236 144q-79 125 -79 279q0 124 38 216q0 1 119 273q71 163 104 278q64 -48 79 -60q55 -45 60 -70q-126 -151 -177 -314q-45 -146 -45 -358q0 -121 37 -204q50 -110 156 -110q120 0 120 339v7l-1 133q0 61 -20.5 185.5t-20.5 189.5h211 q-55 -190 -55 -364zM473 1291q-23 0 -61 15q10 26 97 116t113 138q7 25 29 67q26 38 137 49q10 -32 9 -62q0 -91 -60 -173q-21 -28 -56 -48l-69 -37q-101 -65 -139 -65z" />
<glyph unicode="&#xfb;" horiz-adv-x="695" d="M666 0h-291q-146 0 -236 144q-79 125 -79 279q0 124 38 216q0 1 119 273q71 163 104 278q64 -48 79 -60q55 -45 60 -70q-126 -151 -177 -314q-45 -146 -45 -358q0 -121 37 -204q50 -110 156 -110q121 0 120 346l-1 133q0 61 -20.5 185.5t-20.5 189.5h211 q-55 -190 -55 -364zM609 1312q-23 0 -100 43q-70 40 -93 62q-23 -22 -95 -62q-75 -43 -98 -43q-20 0 -48 11q7 21 77.5 92.5t88.5 119.5q5 15 19 42q21 11 54 30q13 0 36 -4q13 -7 27 -36l18 -43q17 -34 84.5 -106.5t75.5 -94.5q-28 -11 -46 -11z" />
<glyph unicode="&#xfc;" horiz-adv-x="723" d="M666 0h-291q-146 0 -236 144q-79 125 -79 279q0 124 38 216q0 1 119 273q71 163 104 278q64 -48 79 -60q55 -45 60 -70q-126 -151 -177 -314q-45 -146 -45 -358q0 -121 37 -204q50 -110 156 -110q120 0 120 339v7l-1 133q0 61 -20.5 185.5t-20.5 189.5h211 q-55 -190 -55 -364zM642 1290q-87 0 -87 129q0 34 22 75q26 49 60 49q52 0 65 -37q1 -4 10 -78q-6 -15 -8 -52.5t-13 -54.5q-20 -31 -49 -31zM333 1292l-12 -4q-12 -4 -20 -4q-56 0 -56 122q0 36 22 83q27 55 62 55q50 0 62 -45q2 -42 6 -85q4 -20 -11 -70q-33 -52 -53 -52z " />
<glyph unicode="&#xfd;" horiz-adv-x="683" d="M583 -504l-130 -2q-63 0 -198 24q-160 27 -159 54q0 63 65 203q54 120 103 194v11q-60 109 -90 177q-66 153 -115 744h221q0 -42 -16 -101q-26 -94 -27 -99q-12 -58 -12 -140q0 -321 122 -431q189 244 189 546q0 216 -207 360q38 113 124 178q212 -174 212 -494 q0 -248 -135 -526q-39 -79 -278 -474v-44q37 -7 136 -45q83 -32 137 -32q52 0 171 77h24q-61 -138 -137 -180zM331 1328q-23 0 -61 15q10 26 97 116t113 138q7 25 29 67q26 38 137 49q10 -32 9 -62q0 -91 -60 -173q-21 -28 -56 -48l-69 -37q-101 -65 -139 -65z" />
<glyph unicode="&#xfe;" horiz-adv-x="722" d="M331 0q-17 0 -120 34q2 -147 25 -440q4 -29 3 -47h-187l-2 79q0 64 14 172q16 120 18 169q2 63 3 157l-2 151q0 200 -41 624q-40 414 -41 625q75 34 199 74l-10 -659q79 28 156 28q150 0 237 -183q69 -146 69 -315q0 -117 -15 -170q-84 -299 -306 -299zM337 854 q-129 0 -128 -364q0 -389 137 -389q134 0 134 324q-1 429 -143 429z" />
<glyph unicode="&#xff;" horiz-adv-x="683" d="M583 -504l-130 -2q-63 0 -198 24q-160 27 -159 54q0 63 65 203q54 120 103 194v11q-60 109 -90 177q-66 153 -115 744h221q0 -42 -16 -101q-26 -94 -27 -99q-12 -58 -12 -140q0 -321 122 -431q189 244 189 546q0 216 -207 360q38 113 124 178q212 -174 212 -494 q0 -248 -135 -526q-39 -79 -278 -474v-44q37 -7 136 -45q83 -32 137 -32q52 0 171 77h24q-61 -138 -137 -180zM460 1343q-87 0 -87 129q0 34 22 75q26 49 60 49q52 0 65 -37q1 -4 10 -78q-6 -15 -8 -52.5t-13 -54.5q-20 -31 -49 -31zM151 1345l-12 -4q-12 -4 -20 -4 q-56 0 -56 122q0 36 22 83q27 55 62 55q50 0 62 -45q2 -42 6 -85q4 -20 -11 -70q-33 -52 -53 -52z" />
<glyph unicode="&#x131;" horiz-adv-x="321" d="M64 0q0 39 12 101q17 79 20 98q12 93 12 251q0 283 -65 478h209q0 -50 -22.5 -149.5t-22.5 -151.5v-242q0 -65 23.5 -193t23.5 -192h-190z" />
<glyph unicode="&#x152;" horiz-adv-x="1659" d="M1744 -364q-80 0 -187 17q-120 21 -178 49l-318 153q-182 92 -303 178q-109 -162 -256 -162q-228 0 -365 343q-107 268 -106 539q0 270 98 517q129 320 354 320q148 0 272 -185q-6 58 -26 173q-12 45 -26 90q-13 54 -13 92q0 15 2 32h934q-1 -50 -23 -115 q-28 -80 -68 -79q-18 0 -89.5 38.5t-103.5 38.5h-401q-1 0 -5 -5q-28 -56 -28 -118q0 -40 4 -119q2 -82 2 -120h403q1 0 160 40q2 -26 3 -46q0 -37 -23 -106q-26 -80 -53 -81q-80 61 -159 74q-29 5 -177 4l-160 -2v-895q0 -206 102 -279q324 -231 613 -231q79 0 179.5 32.5 t138.5 32.5q54 -148 54 -154q0 -25 -111 -48q-93 -18 -140 -18zM464 1487q-129 0 -190 -291q-40 -189 -41 -395q0 -264 41 -471q65 -345 219 -345q156 0 221 302q40 184 41 428q0 255 -47 454q-75 318 -244 318z" />
<glyph unicode="&#x153;" horiz-adv-x="1054" d="M1022 707q0 -91 -48 -91h-270q-38 0 -60 -34v-45q0 -112 32 -203q39 -120 120 -159q43 -21 199 -24q-1 -48 -91 -103q-83 -50 -135 -50q-55 0 -115 56q-49 47 -78 107q-94 -161 -232 -161q-112 0 -192 93q-54 63 -109 193q-25 60 -25 177q0 209 143 385q90 109 183 109 q128 0 235 -168q93 164 228 164q120 0 171 -65q44 -57 44 -181zM816 853q-53 0 -87 -34.5t-37 -88.5h141q33 0 33 46q0 77 -50 77zM342 852q-10 0 -18 -2q-79 -45 -101 -163q-34 -183 -34 -227q0 -47 34 -221q29 -151 111 -151q93 0 134 175q25 108 24 250q0 339 -150 339z " />
<glyph unicode="&#x178;" horiz-adv-x="851" d="M1574 1561q-16 0 -117.5 71.5t-192.5 71.5q-88 0 -177 -77q-263 -227 -424 -606q-34 -81 -35 -376q0 -268 25 -387q36 -184 157 -356l-37 -20q-131 108 -356 156l66 147v708q-82 164 -218 379l-237 366q229 130 237 130l5 -1q26 -241 190 -558q72 -140 89 -140 q10 0 65 102q99 187 115 319q2 59 28 171q250 77 258 80q157 43 264 43q90 0 208 -42q147 -52 147 -120q0 -61 -60 -61zM755 1876q-87 0 -87 129q0 34 22 75q26 49 60 49q52 0 65 -37q1 -4 10 -78q-6 -15 -8 -52.5t-13 -54.5q-20 -31 -49 -31zM446 1878l-12 -4 q-12 -4 -20 -4q-56 0 -56 122q0 36 22 83q27 55 62 55q50 0 62 -45q2 -42 6 -85q4 -20 -11 -70q-33 -52 -53 -52z" />
<glyph unicode="&#x2c6;" horiz-adv-x="775" d="M666 1307q-29 0 -129 55q-91 52 -121 80q-31 -28 -123 -80q-98 -55 -129 -55q-23 0 -61 15q11 26 102 117t114 153q6 18 23 52q27 13 70 40q18 0 49 -8q17 -9 35 -45l23 -54q22 -43 112 -138q86 -90 97 -117q-37 -15 -62 -15z" />
<glyph unicode="&#x2dc;" horiz-adv-x="824" d="M519 1194q-29 0 -84.5 72.5t-81.5 72.5q-20 0 -82 -60q-49 -47 -80 -114q-28 77 -28 134q0 59 64.5 125t123.5 66q38 0 92 -63.5t85 -63.5q26 0 67 71l52 97q38 -107 38 -142q0 -47 -24 -77q-90 -118 -142 -118z" />
<glyph unicode="&#x2000;" horiz-adv-x="1180" />
<glyph unicode="&#x2001;" horiz-adv-x="2362" />
<glyph unicode="&#x2002;" horiz-adv-x="1180" />
<glyph unicode="&#x2003;" horiz-adv-x="2362" />
<glyph unicode="&#x2004;" horiz-adv-x="786" />
<glyph unicode="&#x2005;" horiz-adv-x="590" />
<glyph unicode="&#x2006;" horiz-adv-x="392" />
<glyph unicode="&#x2007;" horiz-adv-x="392" />
<glyph unicode="&#x2008;" horiz-adv-x="294" />
<glyph unicode="&#x2009;" horiz-adv-x="472" />
<glyph unicode="&#x200a;" horiz-adv-x="130" />
<glyph unicode="&#x2010;" horiz-adv-x="546" d="M410 541q-67 28 -190 28q-34 0 -97 -17.5t-94 -17.5q0 47 23 103l41 99l44 -29q39 0 127 -1h125q23 0 43 29l64 -5q-5 -26 -38 -98q-35 -78 -48 -91z" />
<glyph unicode="&#x2011;" horiz-adv-x="546" d="M410 541q-67 28 -190 28q-34 0 -97 -17.5t-94 -17.5q0 47 23 103l41 99l44 -29q39 0 127 -1h125q23 0 43 29l64 -5q-5 -26 -38 -98q-35 -78 -48 -91z" />
<glyph unicode="&#x2012;" horiz-adv-x="546" d="M410 541q-67 28 -190 28q-34 0 -97 -17.5t-94 -17.5q0 47 23 103l41 99l44 -29q39 0 127 -1h125q23 0 43 29l64 -5q-5 -26 -38 -98q-35 -78 -48 -91z" />
<glyph unicode="&#x2013;" horiz-adv-x="804" d="M712 557q-139 12 -492 12q-31 0 -90 -12t-87 -12v15q-1 32 29 149l609 -3l102 -2q-5 -23 -31 -77q-25 -58 -40 -70z" />
<glyph unicode="&#x2014;" horiz-adv-x="1099" d="M999 552q-54 5 -308 10q-331 7 -471 7q-32 0 -90.5 -12t-86.5 -12v15q-1 36 29 149q227 -9 998 -8q-6 -26 -29 -79q-27 -55 -42 -70z" />
<glyph unicode="&#x2018;" horiz-adv-x="326" d="M171 1563q0 -33 21.5 -95.5t21.5 -95.5q0 -64 -72 -124q-97 76 -97 211q0 87 13 123q27 71 73 122q58 61 123 62l-52 -101q-31 -68 -31 -102z" />
<glyph unicode="&#x2019;" horiz-adv-x="326" d="M50 1248v21l43 92q25 55 25 97q0 32 -21.5 92t-21.5 92q0 65 73 125q96 -76 96 -200q0 -272 -194 -319z" />
<glyph unicode="&#x201a;" horiz-adv-x="285" d="M17 -173v21l44 92q23 55 24 98q0 32 -21.5 92t-21.5 92q0 65 73 124q97 -76 97 -200q0 -272 -195 -319z" />
<glyph unicode="&#x201c;" horiz-adv-x="566" d="M455 1557q0 -33 21.5 -92.5t21.5 -92.5q0 -64 -73 -124q-97 76 -97 200q0 272 195 319v-21l-44 -92q-24 -55 -24 -97zM171 1563q0 -33 21.5 -95.5t21.5 -95.5q0 -64 -72 -124q-97 76 -97 211q0 87 13 123q27 71 73 122q58 61 123 62l-52 -101q-31 -68 -31 -102z" />
<glyph unicode="&#x201d;" horiz-adv-x="566" d="M286 1252l51 100q32 67 32 102q0 33 -21.5 95t-21.5 95q0 65 72 125q97 -77 97 -208q0 -91 -14 -125q-26 -72 -72 -123q-58 -61 -123 -61zM17 1249v22l43 92q25 54 25 97q0 32 -21.5 92t-21.5 92q0 65 73 125q97 -77 97 -201q0 -271 -195 -319z" />
<glyph unicode="&#x201e;" horiz-adv-x="566" d="M286 -172l51 101q32 67 32 103q0 33 -21.5 95t-21.5 95q0 64 72 124q97 -76 97 -209q0 -90 -13 -125q-27 -71 -73 -122q-58 -62 -123 -62zM17 -173v21l44 92q23 55 24 98q0 32 -21.5 92t-21.5 92q0 65 73 124q97 -76 97 -200q0 -272 -195 -319z" />
<glyph unicode="&#x2022;" horiz-adv-x="661" d="M328 645q-112 0 -172 73q-54 67 -54 181q0 94 54 178q61 94 151 95q101 0 176 -103q71 -96 72 -199q0 -65 -81 -145t-146 -80z" />
<glyph unicode="&#x2026;" horiz-adv-x="1058" d="M863 -12q-56 0 -87 57q-25 47 -25 108q0 42 27 99q31 64 66 63q85 0 108 -202q-66 -125 -89 -125zM501 -13q-55 0 -86 57q-26 47 -26 108q0 39 28 97q32 65 65 65q86 0 108 -202q-66 -125 -89 -125zM150 -11q-56 0 -87 58q-25 47 -25 108q0 39 28 97q32 65 65 65 q86 0 110 -203q-68 -125 -91 -125z" />
<glyph unicode="&#x202f;" horiz-adv-x="472" />
<glyph unicode="&#x2039;" horiz-adv-x="705" d="M172 669l-5 -8q-6 9 -53 45q-40 32 -40 44q0 16 35 35q32 17 28 27q36 -1 129 114q66 83 117 181l42 88q31 60 54 75q77 -104 77 -153q0 -22 -156 -162q-161 -145 -173 -216l214 -176q167 -141 166 -181q0 -54 -72 -68l-115 -15l1 10q0 36 -70 124q-86 107 -95 124 q-18 36 -38 60q-32 40 -49 42z" />
<glyph unicode="&#x203a;" horiz-adv-x="705" d="M525 847l6 8q5 -9 53 -44q42 -32 42 -44q0 -16 -34.5 -34.5t-31.5 -29.5q-36 1 -132 -114q-69 -83 -120 -180l-43 -88q-32 -61 -55 -74q-80 104 -80 153q0 21 161 162q166 145 179 216l-221 174q-172 142 -172 183q0 54 75 68q59 7 118 13l-1 -9q0 -36 72 -123 q88 -108 97 -124q20 -36 39 -62q27 -33 51 -40z" />
<glyph unicode="&#x205f;" horiz-adv-x="590" />
<glyph unicode="&#x20ac;" horiz-adv-x="1267" d="M385 960q0 -81 8 -155q38 0 125 -1q82 -1 125 -1q20 0 60.5 4.5t59.5 4.5q9 0 9 -11q0 -18 -53.5 -91t-69.5 -73q7 0 -69 7q-45 6 -173 9q1 -65 22 -195q63 -207 263 -307q77 -38 119 -38q23 0 69 7q106 107 141 107q40 0 72 -76l42 -113q-21 -32 -70 -32 q-410 0 -589 111q-227 141 -256 526q-187 -16 -172 -16q-34 0 -35 25l121 173q27 -10 81 -20q-9 77 -8 147q-64 -16 -192 -32v20l133 190q25 -7 74 -18q38 216 169 391q156 205 354 205q123 0 390 -13q-2 -50 -63 -146q-54 -86 -100 -128q-76 187 -215 186q-157 0 -242 -141 q-98 -162 -121 -354l254 -1q42 0 102 8q87 12 100 14v-24q0 -17 -55 -88t-70 -71q-61 0 -170 5q-122 5 -170 5z" />
<glyph unicode="&#x2122;" horiz-adv-x="2271" d="M1838 1432q-37 -130 -91.5 -402.5t-92.5 -406.5q-17 -56 -61 -72l-4 9q-13 25 -211 862q-90 -490 -90 -1121q0 -98 5 -140q12 -53 28 -161h-263q0 63 29 164q33 118 38 165l60 525q0 1 19 130q12 79 12 133v425q0 1 -43 175h347v-119q0 -325 89 -556q86 238 86 461 q0 22 -7.5 64.5t-7.5 64.5q0 80 32 97h304q2 -432 12 -729q13 -399 144 -890q29 -114 102 -243q107 -191 324 -191q42 0 106 22q77 25 106 30q54 9 128 8q1 -109 -63 -143q-43 -22 -162 -22q-259 0 -443 106q-137 80 -344 302v9q0 33 27 101q25 62 25 100v6l-1 15z M1540 1481q-146 0 -356 41l-202 43q-118 22 -206 22q-36 -27 -57 -129q-17 -80 -17 -150v-812q0 -325 150 -584q4 -5 46 -69q38 -58 38 -61q0 -27 -27 -27t-195 117l-206 149v11q77 185 77 256v1020q0 153 -61 292q-17 1 -34 1q-104 0 -237.5 -78.5t-138.5 -78.5 q-15 0 -61.5 53.5t-46.5 69.5q0 20 66 56q218 120 491 121q172 0 276 -29l337 -94q200 -53 343 -53q27 0 81 16.5t84 16.5v-86q0 -16 -64 -27q-47 -7 -80 -7z" />
<glyph unicode="&#xe000;" horiz-adv-x="940" d="M0 940h940v-940h-940v940z" />
<glyph unicode="&#xfb01;" horiz-adv-x="895" d="M732 1120q-76 0 -76 111q0 47 26 81.5t70 34.5q36 0 58 -50q16 -40 16 -82q-1 -95 -94 -95zM638 0q0 39 13 101l20 98q12 93 12 251q0 283 -66 478h209q0 -50 -22.5 -149.5t-22.5 -151.5v-242q0 -65 23.5 -193t23.5 -192h-190zM357 1468q-83 0 -83 -170q0 -81 40 -110 q31 -23 101 -23q16 0 49.5 1t52.5 1l7 -5q11 -20 11 -291v-48q-56 15 -114 130q-53 106 -122 106q-54 0 -54 -366q0 -136 24 -358q29 -276 33 -335h-200q20 94 19 199v903q0 39 -82 120l111 28q16 29 19 140q5 107 36 154q47 71 173 71q162 0 161 -163q-167 16 -182 16z" />
<glyph unicode="&#xfb02;" horiz-adv-x="894" d="M599 -4q1 34 15 85q20 66 23 83q25 134 24 613q0 348 -12 423q-15 87 -30 199q118 -20 172 -20q14 0 24 1q1 -22 1 -49q0 -39 -4 -104q-5 -79 -5 -105q-21 -704 -21 -751q0 -76 38 -376zM357 1468q-83 0 -83 -170q0 -81 40 -110q31 -23 101 -23q16 0 49.5 1t52.5 1l7 -5 q11 -20 11 -291v-48q-56 15 -114 130q-53 106 -122 106q-54 0 -54 -366q0 -136 24 -358q29 -276 33 -335h-200q20 94 19 199v903q0 39 -82 120l111 28q16 29 19 140q5 107 36 154q47 71 173 71q162 0 161 -163q-167 16 -182 16z" />
<glyph unicode="&#xfb03;" horiz-adv-x="1443" d="M1280 1120q-76 0 -76 111q0 47 26 81.5t70 34.5q36 0 58 -50q16 -40 16 -82q-1 -95 -94 -95zM1186 0q0 39 13 101l20 98q12 93 12 251q0 283 -66 478h209q0 -50 -22.5 -149.5t-22.5 -151.5v-242q0 -65 23.5 -193t23.5 -192h-190zM904 1468q-83 0 -83 -170q0 -81 40 -110 q31 -23 101 -23q16 0 49.5 1t52.5 1l7 -5q11 -20 11 -291v-48q-56 15 -114 130q-53 106 -122 106q-54 0 -54 -366q0 -136 24 -358q29 -276 33 -335h-200q20 94 19 199v903q0 39 -82 120l111 28q16 29 19 140q5 107 36 154q47 71 173 71q162 0 161 -163q-167 16 -182 16z M357 1468q-83 0 -83 -170q0 -81 40 -110q31 -23 101 -23q16 0 49.5 1t52.5 1l7 -5q11 -20 11 -291v-48q-56 15 -114 130q-53 106 -122 106q-54 0 -54 -366q0 -136 24 -358q29 -276 33 -335h-200q20 94 19 199v903q0 39 -82 120l111 28q16 29 19 140q5 107 36 154 q47 71 173 71q162 0 161 -163q-167 16 -182 16z" />
<glyph unicode="&#xfb04;" horiz-adv-x="1441" d="M1147 -4q1 34 15 85q20 66 23 83q25 134 24 613q0 348 -12 423q-15 87 -30 199q118 -20 172 -20q14 0 24 1q1 -22 1 -49q0 -39 -4 -104q-5 -79 -5 -105q-21 -704 -21 -751q0 -76 38 -376zM904 1468q-83 0 -83 -170q0 -81 40 -110q31 -23 101 -23q16 0 49.5 1t52.5 1l7 -5 q11 -20 11 -291v-48q-56 15 -114 130q-53 106 -122 106q-54 0 -54 -366q0 -136 24 -358q29 -276 33 -335h-200q20 94 19 199v903q0 39 -82 120l111 28q16 29 19 140q5 107 36 154q47 71 173 71q162 0 161 -163q-167 16 -182 16zM357 1468q-83 0 -83 -170q0 -81 40 -110 q31 -23 101 -23q16 0 49.5 1t52.5 1l7 -5q11 -20 11 -291v-48q-56 15 -114 130q-53 106 -122 106q-54 0 -54 -366q0 -136 24 -358q29 -276 33 -335h-200q20 94 19 199v903q0 39 -82 120l111 28q16 29 19 140q5 107 36 154q47 71 173 71q162 0 161 -163q-167 16 -182 16z" />
</font>
</defs>
</svg>
